Phlox
Sota Fujimori 2nd Season

ADVANCED

Level: 8
BPM: 185
Notes: 626

1
口口口口 |----|
口口口口 |----|
口口口口 |----|
口口口口 |----|
2
口口口口 |①---|
口①口口 |----|
口口口口 |----|
口口②口 |--②-|
3
口口口口 |----|
口②口口 |----|
口①口口 |①-②-|
口口口口 |----|
4
口口口② |①---|
口口口口 |----|
口口口口 |----|
口口①口 |--②-|
5
口口口口 |----|
口①口口 |①---|
口口②口 |②---|
口③口口 |③---|
6
⑤口①口 |①---|
口口④口 |----|
③口口口 |②-③-|
口口②口 |④-⑤-|
7
口口口口 |----|
口②口口 |----|
口①口口 |①-②-|
口口口口 |----|
8
口口口口 |①---|
口口口口 |----|
口口口口 |----|
口口①口 |----|
9
口口②口 |①---|
口口口口 |----|
口①口口 |②---|
口口口口 |----|
10
口⑦⑦口 |①-②-|
③②①口 |③-④-|
口④⑤⑥ |⑤-⑥-|
口口口口 |--⑦-|
11
⑤口口口 |--①-|
④口口口 |②---|
③口口口 |③-④-|
口①②口 |⑤---|
12
口⑥⑦口 |①-②-|
⑥口口⑦ |③-④-|
口口⑤口 |⑤---|
③④②① |⑥-⑦-|
13
⑤⑤⑤⑤ |--①-|
口口口口 |②---|
口①③口 |③-④-|
口④②口 |⑤---|
14
⑤口口⑤ |①---|
④①①④ |----|
③口口③ |②-③-|
②口口② |④-⑤-|
15
⑤口口口 |--①-|
④口口口 |②---|
③口口口 |③-④-|
口①②口 |⑤---|
16
口⑥⑦口 |①-②-|
⑥口口⑦ |③-④-|
口口⑤口 |⑤---|
③④②① |⑥-⑦-|
17
⑤口口⑤ |--①-|
口口口口 |②---|
口①③口 |③-④-|
口④②口 |⑤---|
18
口口口口 |----|
口口口口 |----|
①①①① |----|
口口口口 |①---|
19
①口口① |①---|
②口口口 |②-③-|
口口口口
口口③口

口口口⑦
口口⑥口
口⑤口口 |④-⑤-|
④口口口 |⑥-⑦-|
20
③口②④ |--①-|
口①口口 |--②-|
口口①口 |③---|
④②口③ |④---|
21
口①⑦口 |①-②-|
口⑥②口 |③-④-|
口③⑤口 |--⑤-|
口口④口 |⑥-⑦-|
22
口口口口 |----|
②④④② |①-②-|
口口口口 |--③-|
③①①③ |④---|
23
①口口① |①---|
口口口② |②-③-|
口口口口
口③口口

⑦口口口
口⑥口口
口口⑤口 |④-⑤-|
口口口④ |⑥-⑦-|
24
④②口③ |--①-|
口口①口 |--②-|
口①口口 |③---|
③口②④ |④---|
25
口⑦①口 |①-②-|
口②⑥口 |③-④-|
口⑤③口 |--⑤-|
口④口口 |⑥-⑦-|
26
口口口口 |----|
②④④② |①-②-|
口口口口 |--③-|
③①①③ |④---|
27
①口口① |①---|
口口口口 |----|
口口口口
口口口口

⑤口口口
④口口口
口③口口 |②-③-|
口②口口 |④-⑤-|
28
口⑥口① |--①-|
口②口⑤ |②-③-|
口④口③ |④-⑤-|
口口口口 |⑥---|
29
口⑥⑦口 |①-②-|
⑥口口⑦ |③-④-|
口口⑤口 |⑤---|
③④②① |⑥-⑦-|
30
③④④③ |--①-|
口口口口 |②---|
③①口③ |③---|
口口②口 |④---|
31
④⑤⑤口 |①-②-|
③口口口 |③-④-|
口②口口 |----|
口①口口 |--⑤-|
32
口⑥口① |--①-|
口②口⑤ |②-③-|
口④口③ |④-⑤-|
口口口口 |⑥---|
33
口⑥⑦口 |①-②-|
⑥口口⑦ |③-④-|
口口⑤口 |⑤---|
③④②① |⑥-⑦-|
34
⑤⑤口口 |--①-|
④口口口 |②---|
③①口口 |③-④-|
口口②口 |⑤---|
35
口⑦口③ |①-②-|
口⑧口④ |③-④-|
口⑥⑤口 |⑤-⑥-|
口①②口 |⑦-⑧-|
36
⑧口④⑧ |①-②-|
⑦口③⑦ |③-④-|
口⑥⑤口 |⑤-⑥-|
口①②口 |⑦-⑧-|
37
口③⑦口 |①-②-|
口④⑧口 |③-④-|
口⑤⑥口 |⑤-⑥-|
口②①口 |⑦-⑧-|
38
③口⑦口 |①-②-|
④口口⑦ |③-④-|
口⑤⑥口 |⑤-⑥-|
口②①口 |⑦---|
39
③口⑦口 |①-②-|
④口⑧口 |③-④-|
口⑤⑥口 |⑤-⑥-|
口②①口 |⑦-⑧-|
40
⑧④口⑧ |①-②-|
⑦③口⑦ |③-④-|
口⑤⑥口 |⑤-⑥-|
口②①口 |⑦-⑧-|
41
口⑦③口 |①-②-|
口⑧④口 |③-④-|
口⑥⑤口 |⑤-⑥-|
口①②口 |⑦-⑧-|
42
⑦⑦口③ |①-②-|
⑦口口④ |③-④-|
口⑥⑤口 |⑤-⑥-|
口①②口 |⑦---|
43
口口口口 |①---|
口口口口 |----|
③口口② |----|
口①①口 |②-③-|
44
口口口口 |----|
口口口口 |----|
口口①口 |----|
口口口口 |①---|
45
口口口口 |①---|
②①①③ |----|
口口口口 |----|
口口口口 |②-③-|
46
口口口口 |----|
口口口口 |----|
口①口口 |----|
口口口口 |①---|
47
口③口口 |①---|
口①①口 |----|
口口②口 |--②-|
口口口口 |--③-|
48
口口口口 |----|
口口口① |--①-|
口口口口 |----|
②②②② |②---|
49
口口口口 |①---|
②①①③ |----|
口口口口 |--②-|
口口口口 |--③-|
50
口口口口 |----|
口口口口 |----|
口口口口 |----|
口口口口 |----|
51
口⑦口口 |①-②-|
⑦④①口 |③-④-|
口⑤②口 |⑤-⑥-|
口⑥③口 |⑦---|
52
②⑥口③ |①-②-|
⑥口⑤口 |③---|
口⑤口④ |④--⑤|
口口④① |--⑥-|
53
③口④② |①-②-|
口⑤口④ |③---|
⑥口⑤口 |④--⑤|
①⑥口口 |--⑥-|
54
②⑥口③ |①-②-|
⑥口⑤口 |③---|
口⑤口④ |④--⑤|
口口④① |--⑥-|
55
③口④② |①-②-|
口⑤口④ |③---|
⑥口⑤口 |④--⑤|
①⑥口口 |--⑥-|
56
②⑥口③ |①-②-|
⑥口⑤口 |③---|
口⑤口④ |④--⑤|
口口④① |--⑥-|
57
③口⑥② |①-②-|
口⑤口⑥ |③---|
④口⑤口 |④--⑤|
①④口口 |--⑥-|
58
②口⑤③ |①-②-|
④④⑤口 |③---|
口⑤④④ |④--⑤|
口⑤口① |----|
59
②⑥口③ |①-②-|
⑥口⑤口 |③---|
口⑤口④ |④--⑤|
口口④① |--⑥-|
60
口④①① |----|
④③口① |①---|
口口③② |②--③|
口口②口 |--④-|
61
③口④② |①-②-|
口口⑤④ |③---|
⑥⑤口口 |④--⑤|
①⑥口口 |--⑥-|
62
②口⑤③ |①-②-|
④④⑤口 |③---|
口⑤④④ |④--⑤|
⑥⑤口① |--⑥-|
63
②口口③ |①-②-|
⑤⑤⑤⑤ |③---|
口口口口 |④--⑤|
口④④① |----|
64
②⑥口③ |①-②-|
⑥⑤口口 |③---|
口口⑤④ |④--⑤|
口口④① |--⑥-|
65
③口④② |①-②-|
口口⑤④ |③---|
⑥⑤口口 |④--⑤|
①⑥口口 |--⑥-|
66
②口⑤③ |①-②-|
④④⑤口 |③---|
口⑤④④ |④--⑤|
口⑤口① |----|
67
②⑥口③ |①-②-|
⑥⑤口口 |③---|
口口⑤④ |④--⑤|
口口④① |--⑥-|
68
口④①① |----|
④口①① |①---|
③口口② |②--③|
口③②口 |--④-|
69
③⑤④② |①-②-|
⑤口口④ |③---|
⑥口口口 |④--⑤|
①⑥口口 |--⑥-|
70
②口⑤③ |①-②-|
④④⑤口 |③---|
口⑤④④ |④--⑤|
口⑤口① |----|
71
②④⑤③ |①-②-|
④⑥⑥⑤ |③---|
⑤⑥⑥④ |④--⑤|
口⑤④① |--⑥-|
72
①④口① |----|
④口口口 |①---|
③口口② |②--③|
口③②口 |--④-|
73
③⑤④② |①-②-|
⑤口口④ |③---|
⑥口口口 |④--⑤|
①⑥口口 |--⑥-|
74
②口⑤③ |①-②-|
④④⑤口 |③---|
口⑤④④ |④--⑤|
⑥⑤口① |--⑥-|
75
②④⑤③ |①-②-|
④⑥⑥⑤ |③---|
⑤⑥⑥④ |④--⑤|
口⑤④① |--⑥-|
76
口口口口 |----|
口口口口 |----|
口口口口 |----|
①①①① |①---|
77
口口口口 |①-②-|
口①②③ |③-④-|
⑥⑤④口 |⑤-⑥-|
口⑦⑦口 |--⑦-|
78
口⑥口① |--①-|
口②口⑤ |②-③-|
口④口③ |④-⑤-|
口口口口 |⑥---|
79
口⑥⑦口 |①-②-|
⑥口口⑦ |③-④-|
口口⑤口 |⑤---|
③④②① |⑥-⑦-|
80
⑤口口口 |--①-|
④口口口 |②---|
③①口口 |③-④-|
口口②口 |⑤---|
81
⑥①②口 |①-②-|
⑤②①口 |----|
口④口口 |③-④-|
口③口口 |⑤-⑥-|
82
口⑥口① |--①-|
口②口⑤ |②-③-|
口④口③ |④-⑤-|
口口口口 |⑥---|
83
口⑥⑦口 |①-②-|
⑥口口⑦ |③-④-|
口口⑤口 |⑤---|
③④②① |⑥-⑦-|
84
口③③口 |----|
③①①③ |①---|
口口口口 |②---|
口②②口 |③---|
85
口③③口 |----|
③①①③ |①---|
口口口口 |②---|
口②②口 |③---|
86
口口口口 |----|
口①①口 |①---|
口②②口 |----|
口口口口 |②---|
87
③③③③ |----|
③①①③ |①---|
口口口口 |②---|
口②②口 |③---|

不確定度: 0

最終更新:2017年08月03日 01:25