Phlox
Sota Fujimori 2nd Season

EXTREME

Level: 10
BPM: 185
Notes: 757

1
口口口口 |----|
口口口口 |----|
口口口口 |----|
口口口口 |----|
2
口口口口 |①---|
口①口口 |----|
口口口口 |----|
口口②口 |--②-|
3
口口口口 |----|
口②口口 |----|
口①口口 |①-②-|
口口口口 |----|
4
口口口② |①---|
口口口口 |----|
口口口口 |----|
口口①口 |--②-|
5
口口口口 |----|
①口口口 |①---|
口②口口 |②---|
口口③口 |③---|
6
口口①⑤ |①---|
口③口口 |----|
口口④口 |②-③-|
②口口口 |④-⑤-|
7
口口口口 |----|
口②口口 |----|
口①口口 |①-②-|
口口口口 |----|
8
口口口口 |①---|
口口口口 |----|
口口口口 |----|
口口①口 |----|
9
口口②口 |①---|
口口口口 |----|
口①口口 |②---|
口口口口 |----|
10
口口⑥口 |①-②-|
口口⑤口 |③-④-|
口⑦②① |⑤-⑥-|
③④口口 |--⑦-|
11
口口⑥口 |--①-|
①②③④ |②-③-|
口口⑤口 |④-⑤-|
口口口口 |⑥---|
12
⑤口⑦⑦ |①-②-|
口口口⑥ |③-④-|
③④口口 |⑤---|
口口②① |⑥-⑦-|
13
⑧口口⑧ |--①-|
①口口口 |②-③-|
口⑤④② |④⑤⑥⑦|
③⑦⑥口 |⑧---|
14
⑤⑤②口 |①-②-|
③③①① |----|
口口④④ |③-④-|
口口⑥⑥ |⑤-⑥-|
15
口⑥口口 |--①-|
④③②① |②-③-|
口⑤口口 |④-⑤-|
口口口口 |⑥---|
16
⑦⑦口⑤ |①-②-|
口口口口 |③-④-|
口口④③ |⑤---|
①②⑥口 |⑥-⑦-|
17
口⑥②口 |--①-|
④口口① |②-③-|
口⑤③口 |④-⑤-|
口口口口 |⑥---|
18
⑨⑨②① |①②③④|
⑨⑦④③ |⑤-⑥-|
口口⑧⑤ |⑦-⑧-|
口⑥口口 |⑨---|
19
口口②⑦ |①---|
⑥③口① |②-③-|
②口⑥④ |④-⑤-|
口④①⑤ |⑥-⑦-|
20
口②⑤⑦ |①-②-|
⑦口⑦⑤ |③-④-|
③④口口 |⑤-⑥-|
口⑤①⑥ |⑦---|
21
①⑧④⑧ |①-②-|
⑦②口⑦ |③-④-|
③口③⑥ |⑤-⑥-|
口⑤①口 |⑦-⑧-|
22
⑥⑥③口 |--①-|
⑥口口口 |②-③-|
②口⑤口 |④-⑤-|
口④①② |⑥---|
23
口口②⑦ |①---|
⑥③⑥① |②-③-|
②口⑤口 |④-⑤-|
口④①④ |⑥-⑦-|
24
口②⑤⑦ |①-②-|
⑦口⑦⑤ |③-④-|
③④口口 |⑤-⑥-|
口⑤①⑥ |⑦---|
25
②①口口 |①-②-|
口口口④ |③-④-|
③④口②
口口①口

口⑦⑦口
⑤口⑥口
口口⑤口 |--⑤-|
口口口口 |⑥-⑦-|
26
①口口口 |----|
口①③口 |①-②-|
口④④③ |--③-|
②④④② |④---|
27
口①②口 |①-②-|
①口口② |----|
口口⑥⑤ |③-④-|
③④口口 |⑤-⑥-|
28
口②口⑦ |--①-|
①⑤④⑥ |②-③-|
口③口口 |④-⑤-|
口口口口 |⑥-⑦-|
29
⑤口⑦⑦ |①-②-|
口口口⑥ |③-④-|
③④口口 |⑤---|
口口②① |⑥-⑦-|
30
口②⑥口 |--①-|
①⑤口口 |②-③-|
口③④口 |④-⑤-|
口口口口 |⑥---|
31
口②口口 |①-②-|
①口⑤口 |③-④-|
口③口④ |⑤---|
口⑥⑥口 |--⑥-|
32
⑦口②口 |--①-|
⑥④⑤① |②-③-|
口口③口 |④-⑤-|
口口口口 |⑥-⑦-|
33
⑦⑦口⑤ |①-②-|
⑥口口口 |③-④-|
口口④③ |⑤---|
①②口口 |⑥-⑦-|
34
口口②口 |--①-|
口⑤口① |②-③-|
④口③口 |④-⑤-|
口⑥口⑥ |⑥---|
35
⑦②口① |①-②-|
③口④口 |③-④-|
⑥⑧口② |⑤-⑥-|
⑤⑥③⑦ |⑦-⑧-|
36
口⑧②① |①-②-|
③⑦④② |③-④-|
⑥口⑦⑧ |⑤-⑥-|
⑤⑥③口 |⑦-⑧-|
37
③口②① |①-②-|
口口口② |③-④-|
口口口口
④口口③

口⑦口⑧
⑤口⑥口
口⑥口⑦ |⑤-⑥-|
口口⑤口 |⑦-⑧-|
38
②⑥③⑦ |①-②-|
④口⑦③ |③-④-|
①⑤口⑥ |⑤-⑥-|
⑤①④② |⑦---|
39
①口②⑦ |①-②-|
口④口③ |③-④-|
②口⑧⑥ |⑤-⑥-|
⑦③⑥⑤ |⑦-⑧-|
40
①②⑧口 |①-②-|
②④⑦③ |③-④-|
⑧⑦口⑥ |⑤-⑥-|
口③⑥⑤ |⑦-⑧-|
41
①②口③ |①-②-|
②③口口 |③-④-|
口口口口
③口口④

⑧口⑦口
口口口⑤
⑦口⑥口 |⑤-⑥-|
口⑤口口 |⑦-⑧-|
42
⑦③⑦② |①-②-|
③口⑤④ |③-④-|
⑦⑤⑥① |⑤-⑥-|
②④①⑥ |⑦---|
43
口口口口 |①---|
口口②口 |----|
口口口口 |----|
①③①口 |②-③-|
44
口口口口 |----|
口口口口 |----|
口口①口 |----|
口口口口 |①---|
45
口口口口 |①---|
②①①③ |----|
②口口③ |----|
口口口口 |②-③-|
46
口口口口 |----|
口口口口 |----|
口①口口 |----|
口口口口 |①---|
47
口③口口 |①---|
口①①口 |----|
口口②口 |--②-|
口口口口 |--③-|
48
口口口口 |----|
口口口① |--①-|
口口口口 |----|
②②②② |②---|
49
口口口口 |①---|
②①①③ |----|
②口口③ |--②-|
口口口口 |--③-|
50
①口口口 |----|
口②口口 |----|
口③口口 |①-②-|
口口④口 |③-④-|
51
⑥⑦口⑤ |①②③④|
⑧⑨④③ |⑤-⑥⑦|
⑩口②① |⑧⑨⑩-|
口口⑪⑪ |⑪---|
52
口⑥口口 |①-②-|
口口③⑥ |③④--|
⑤②④① |⑤--⑥|
口⑤⑦⑦ |--⑦-|
53
⑤口⑧⑥ |①-②-|
⑧口③⑤ |③④--|
口②④① |⑤⑥-⑦|
口⑦⑦口 |--⑧-|
54
口⑥口口 |①-②-|
口口③⑥ |③④--|
⑤②④① |⑤--⑥|
口⑤⑦⑦ |--⑦-|
55
⑤口⑧⑥ |①-②-|
⑧口③⑤ |③④--|
口②④① |⑤⑥-⑦|
口⑦⑦口 |--⑧-|
56
口⑥口口 |①-②-|
口口③⑥ |③④--|
⑤②④① |⑤--⑥|
口⑤⑦⑦ |--⑦-|
57
⑤口⑧⑥ |①-②-|
⑧口③⑤ |③④--|
口②④① |⑤⑥-⑦|
口⑦⑦口 |--⑧-|
58
⑤⑥口口 |①-②-|
口口③口 |③④--|
口②④① |⑤--⑥|
⑥⑤口口 |----|
59
⑤口⑧⑥ |①-②-|
⑧口③⑤ |③④--|
口②④① |⑤⑥-⑦|
口⑦⑦口 |--⑧-|
60
口④口口 |①---|
口②②④ |②---|
③②②口 |③--④|
①③⑤⑤ |--⑤-|
61
⑤口⑧⑥ |①-②-|
⑧口③⑤ |③④--|
口②④① |⑤⑥-⑦|
口⑦⑦口 |--⑧-|
62
⑤⑥口口 |①-②-|
口口③口 |③④--|
口②④① |⑤--⑥|
⑥⑤⑦⑦ |--⑦-|
63
⑤口口⑥ |①-②-|
口口③⑤ |③④--|
口②④① |⑤⑥-⑦|
⑦⑦⑦⑦ |----|
64
口⑥口口 |①-②-|
口口③⑥ |③④--|
⑤②④① |⑤--⑥|
口⑤⑦⑦ |--⑦-|
65
⑤口⑧⑥ |①-②-|
⑧口③⑤ |③④--|
口②④① |⑤⑥-⑦|
口⑦⑦口 |--⑧-|
66
⑤⑥口口 |①-②-|
口口③口 |③④--|
口②④① |⑤--⑥|
⑥⑤口口 |----|
67
⑤口⑧⑥ |①-②-|
⑧口③⑤ |③④--|
口②④① |⑤⑥-⑦|
口⑦⑦口 |--⑧-|
68
口①⑦⑥ |①②③-|
口②④⑦ |④⑤--|
⑥③⑤口 |⑥--⑦|
口⑥⑧⑧ |--⑧-|
69
口口口口 |①-②-|
①口③口 |③④--|
口②④①
②口口口

⑤口⑧⑥
⑧口口⑤
口口口口 |⑤⑥-⑦|
口⑦⑦口 |--⑧-|
70
⑤⑥口口 |①-②-|
口口③口 |③④--|
口②④① |⑤--⑥|
⑥⑤口口 |----|
71
口口口口 |①-②-|
①口③口 |③④--|
口②④①
口口口口

⑤口⑧⑥
⑧口口⑤
⑦口口口 |⑤⑥-⑦|
口⑦⑦口 |--⑧-|
72
口①⑦⑥ |①②③-|
口②④⑦ |④⑤--|
⑥③⑤口 |⑥--⑦|
口⑥⑧⑧ |--⑧-|
73
口③口口 |①-②-|
①口③口 |③④--|
口②④①
②口口口

⑤口⑧⑥
⑧口口⑤
口口口口 |⑤⑥-⑦|
口⑦⑦口 |--⑧-|
74
口口⑥⑤ |①-②-|
口⑦③口 |③④--|
口②④① |⑤--⑥|
口⑦⑤⑥ |--⑦-|
75
①口口口 |①②③④⑤---|
②口⑥口 |⑥⑦--|
③⑤⑦①
④口口口

口⑪口⑨
⑪口口⑧
口口口口 |⑧⑨-⑩|
口⑩⑩口 |--⑪-|
76
⑨⑨口口 |①②③④|
⑨口⑧⑥ |⑤-⑥-|
①②③④ |⑦-⑧-|
口口⑦⑤ |⑨---|
77
口口⑥口 |①-②-|
口口⑤口 |③-④-|
口⑦②① |⑤-⑥-|
③④口口 |--⑦-|
78
口⑥口口 |--①-|
①②③④ |②-③-|
口口口口 |④-⑤-|
口口⑤口 |⑥---|
79
⑦⑦口⑤ |①-②-|
⑥口口口 |③-④-|
口口④③ |⑤---|
①②口口 |⑥-⑦-|
80
⑥口⑤口 |--①-|
⑤口③④ |②-③-|
④②⑥口 |④-⑤-|
口口①口 |⑥---|
81
口①口② |①-②-|
口口口口 |----|
口口口口
②口①口

口口口口
口口口口
③④口口 |③-④-|
口口⑥⑤ |⑤-⑥-|
82
口口⑥口 |--①-|
④③②① |②-③-|
口口口口 |④-⑤-|
口⑤口口 |⑥---|
83
⑤口⑦⑦ |①-②-|
口口口⑥ |③-④-|
①②口口 |⑤---|
口口④③ |⑥-⑦-|
84
⑧①⑩口 |①②③④⑤---|
⑥②口⑩ |⑥-⑦-|
口③⑤口 |⑧-⑨-|
⑦④口⑨ |⑩---|
85
⑧①⑩口 |①②③④⑤---|
⑥②口⑩ |⑥-⑦-|
口③⑤口 |⑧-⑨-|
⑦④口⑨ |⑩---|
86
⑧①口口 |①②③④⑤---|
⑨②⑥⑬ |⑥-⑦-|
⑩③⑫⑤ |⑧⑨⑩⑪⑫---|
⑪④⑦⑭ |⑬-⑭-|
87
⑩①⑩⑧ |①②③④⑤---|
口②⑥口 |⑥-⑦-|
⑩③⑩⑤ |⑧-⑨-|
⑨④⑦口 |⑩---|

不確定度: 0

最終更新:2017年08月03日 01:25