少年リップルズ
常盤ゆう

EXTREME

Level: 9
BPM: 210
Notes: 659

1
口口口口 |----|
口口口口 |----|
口口口口 |----|
口口口口 |----|
2
①②口口 |①-②-|
口⑤④③ |③-④-|
⑥⑦口口 |⑤-⑥-|
口口口⑧ |⑦-⑧-|
3
③④口口 |①-②-|
口⑦⑥⑤ |③-④-|
⑧口口口 |⑤-⑥-|
口②①口 |⑦-⑧-|
4
⑥⑦口口 |①-②-|
口口口⑧ |③-④-|
口①②口 |⑤-⑥-|
口⑤④③ |⑦-⑧-|
5
⑥⑦⑧⑨ |①-②-|
②①⑩口 |③-④-|
③⑪④⑤ |⑤-⑥⑦|
口口口口 |⑧⑨⑩⑪|
6
⑥口口口 |①-②-|
⑦口口口 |③-④-|
⑥口④⑤ |⑤---|
①②③① |⑥-⑦-|
7
口③②① |①-②-|
口④⑤⑥ |--③-|
口口③口 |④-⑤-|
口口口口 |⑥---|
8
⑥⑦⑥口 |①-②-|
口口口口 |③-④-|
①②口① |⑤---|
口⑤④③ |⑥-⑦-|
9
口口口口 |①-②-|
口③②① |③---|
口④口口 |④-⑤-|
口④⑤⑥ |⑥---|
10
①口口③ |①-②-|
①⑤口③ |--③-|
④口②口 |----|
④口口口 |④-⑤-|
11
口②口口 |--①-|
口口②口 |----|
口③口① |②-③-|
口口④① |④---|
12
①口口③ |①-②-|
①口⑤③ |--③-|
④口②口 |----|
口口口口 |④-⑤-|
13
口口⑪口 |--①-|
①⑧⑨⑩ |②-③-|
口②⑦③ |④⑤⑥⑦|
口⑥⑤④ |⑧⑨⑩⑪|
14
②②口① |①---|
口④口口 |②---|
③③口口 |③---|
①④口口 |④---|
15
口口口口 |①---|
口口①① |--②-|
口口③④ |--③-|
口口②② |④---|
16
①①②② |----|
口③③口 |①---|
口口口口 |②---|
口口口口 |--③-|
17
口口口口 |----|
口口口口 |①-②-|
口口①② |----|
口口口③ |③---|
18
①①口口 |----|
口③口口 |①---|
②②口口 |②---|
口③口口 |③---|
19
口口口口 |①---|
口口①① |②-③-|
口口④⑤ |--④-|
口口③② |⑤---|
20
①①口口 |----|
②②口口 |①---|
口口口口 |②---|
口口口口 |----|
21
③口口① |①---|
口④①口 |②---|
口②⑤口 |③-④-|
②口口⑥ |⑤-⑥-|
22
口②口① |①---|
口口③④ |②---|
口⑤口口 |③-④-|
口口口口 |--⑤-|
23
口口口口 |----|
口口口口 |①---|
口口口口 |②---|
①②③口 |③---|
24
口口④口 |①---|
口③口口 |----|
口口②口 |--②-|
口口口① |③-④-|
25
口口口口 |----|
口口口口 |----|
口口口口 |①---|
口②①口 |②---|
26
口④口口 |①---|
口口③口 |----|
口②口口 |--②-|
①口口口 |③-④-|
27
口口口口 |----|
口口口口 |----|
口口口口 |①---|
①②口口 |②---|
28
口④口口 |①---|
口口③口 |----|
口口口② |--②-|
口口①口 |③-④-|
29
口口①口 |--①-|
口②口口 |②-③-|
口口③口 |----|
口口口口 |----|
30
口①口口 |----|
口口②③ |①---|
口④口口 |②-③-|
口口口口 |--④-|
31
口口口口 |----|
口口口口 |①---|
口口口口 |②---|
①②③口 |③---|
32
口④⑤口 |①---|
口口③口 |----|
口②口口 |②-③-|
口口口① |④-⑤-|
33
口口口口 |----|
口口口口 |----|
口口口口 |①---|
①②口口 |②---|
34
口⑤④口 |①---|
口③口口 |----|
口口②口 |②-③-|
口口①口 |④-⑤-|
35
口口口口 |----|
口口口口 |----|
口口口口 |①---|
①②口口 |②---|
36
口口④口 |①---|
口③口口 |----|
口口②口 |--②-|
口口①口 |③-④-|
37
①②口③ |----|
口口口口 |①---|
口口口口 |②---|
口口口口 |③---|
38
④口口口 |①---|
③口口③ |②-③-|
②口口② |----|
口①①口 |--④-|
39
口①②③ |①-②-|
口⑤④口 |③-④-|
口⑥⑦口 |⑤-⑥-|
口口口口 |⑦---|
40
口口口口 |①---|
③口口③ |②-③-|
②口口② |----|
口①①口 |----|
41
④③②① |①-②-|
口⑤⑥口 |③-④-|
口口口口 |⑤-⑥-|
口口口口 |----|
42
口口口口 |①---|
③口口③ |②-③-|
②口口② |----|
口①①口 |----|
43
④③②① |①-②-|
⑤⑥⑦口 |③-④-|
口口口口 |⑤-⑥-|
口口口口 |⑦---|
44
④③②① |①-②-|
口⑦⑥⑤ |③-④-|
口⑦⑥⑤ |--⑤-|
①②③④ |⑥-⑦-|
45
①②口口 |----|
口口口口 |----|
口口口口 |①---|
口口口口 |②---|
46
口口①② |①---|
口③口口 |②---|
口口④口 |③-④-|
口口⑤口 |--⑤-|
47
口③④④ |----|
口②口口 |--①-|
口①口口 |②-③-|
口口口口 |--④-|
48
口口口口 |----|
口口①① |①---|
口口②③ |②-③-|
口口④④ |--④-|
49
口口口口 |----|
口口口口 |----|
口口口口 |①---|
①②口口 |②---|
50
口③④口 |①---|
②口口⑤ |②---|
口①口口 |③-④-|
口口口口 |--⑤-|
51
①口口口 |----|
口②②口 |①---|
口③③口 |②-③-|
④口口④ |--④-|
52
口口口口 |----|
③口口③ |----|
②口口② |①---|
口口①口 |②-③-|
53
口②①④ |--①-|
口口口口 |②---|
口③③口 |③---|
④口口口 |④---|
54
①口②口 |①-②-|
口③④口 |--③-|
口⑤口口 |----|
口口口① |④-⑤-|
55
口口口⑥ |①-②-|
⑦口口口 |③-④-|
口口①口 |⑤---|
②③④⑤ |⑥-⑦-|
56
口口口口 |--①-|
口①②口 |②---|
③口口口 |③-④-|
口⑤⑤④ |--⑤-|
57
口③③口 |--①-|
口②②口 |--②-|
口①①口 |--③-|
口口口口 |----|
58
口⑥⑥⑤ |①-②-|
③口⑤③ |--③-|
②④口① |--④-|
④①②口 |⑤-⑥-|
59
①口口口 |①-②-|
口②口口 |③-④-|
口口③口 |----|
口口口④ |----|
60
①口口① |①---|
口④③口 |②-③-|
④②⑤③ |④-⑤-|
⑥②⑤⑥ |⑥---|
61
①②②① |①-②-|
④④③③ |--③-|
口口口口 |④---|
⑤口口⑤ |⑤---|
62
①⑦口① |①---|
口④③⑦ |②-③-|
④②⑤③ |④-⑤-|
⑥②⑤⑥ |⑥-⑦-|
63
②口①② |①-②-|
①④③口 |--③-|
⑤③⑤口 |④---|
口④口口 |⑤---|
64
②①①② |①---|
③④④③ |②-③-|
口⑤⑤口 |--④-|
口口口口 |⑤---|
65
口③④口 |①-②-|
④口口③ |--③-|
①⑤⑤② |④---|
口②①口 |⑤---|
66
④口口④ |①---|
③①①② |----|
③口口② |--②-|
①口口① |③-④-|
67
口口口口 |----|
口口口口 |----|
口口口口 |①---|
口②①口 |②---|
68
口口口口 |①---|
③②口口 |②-③-|
④①口口 |--④-|
⑤口口口 |--⑤-|
69
①②口口 |----|
口③④口 |----|
口口口口 |①-②-|
口口口口 |③-④-|
70
口口口口 |①---|
口口口① |②-③-|
口②③口 |--④-|
口④口⑤ |--⑤-|
71
①②③口 |----|
口口口口 |----|
口口口口 |①-②-|
口口口口 |③---|
72
口口口口 |①---|
口①①口 |②-③-|
口②③口 |--④-|
口④⑤口 |⑤---|
73
口口口口 |①-②-|
口口口口 |--③-|
④口⑤③ |④---|
②口口① |⑤---|
74
口口口口 |①---|
①口④① |----|
口③口口 |--②-|
口口②口 |③-④-|
75
口口口口 |----|
口③口口 |----|
口口②口 |①-②-|
口①口口 |③---|
76
②①①② |①---|
③⑥⑤③ |②-③-|
⑥④口⑤ |--④-|
口④口口 |⑤-⑥-|
77
④③③④ |①-②-|
口口⑥口 |--③-|
口⑤①⑥ |④-⑤-|
②⑤①② |⑥---|
78
口④④口 |①-②-|
③⑦⑥③ |③-④-|
⑦⑤①⑥ |--⑤-|
②⑤①② |⑥-⑦-|
79
⑥④④⑤ |①-②-|
③口⑥③ |--③-|
口⑤①口 |④-⑤-|
②口①② |⑥---|
80
口④④口 |①---|
③③⑥⑤ |②-③-|
⑥⑤②② |④-⑤-|
口①①口 |⑥---|
81
②⑤⑤③ |①-②-|
④⑥⑥口 |③-④-|
口口口③ |⑤---|
④①①② |⑥---|
82
④④④④ |①---|
③③③③ |----|
②②②② |--②-|
口①①口 |③-④-|
83
口口口口 |----|
口口口口 |----|
口口口口 |--①-|
口②①口 |②---|
84
口口口口 |①---|
口④③口 |--②-|
①①②② |----|
口口口口 |③-④-|
85
口口口① |----|
②口口口 |--①-|
③口口口 |--②-|
口口口口 |③---|
86
口口口口 |①---|
口口口口 |②---|
口口口口 |③---|
④③②① |④---|
87
①口口口 |①-②-|
②③口口 |--③-|
口口④口 |--④-|
口口⑤口 |⑤---|
88
口④口口 |①---|
口口③口 |----|
口②口口 |--②-|
口①口口 |③-④-|
89
口口口口 |----|
③口③口 |----|
口②口② |--①-|
口①①口 |②-③-|
90
②①①③ |①---|
口口口口 |----|
口④④口 |--②-|
③口口② |③-④-|
91
口③③口 |--①-|
口①①口 |---②|
②口口② |--③-|
口口口口 |----|
92
口口口口 |①-②-|
⑥⑥⑤⑤ |--③-|
④④③③ |④---|
②②①① |⑤-⑥-|
93
②②①① |--①-|
口口口口 |②---|
③口口④ |③---|
口③④口 |④---|
94
④④③③ |①-②-|
②②①① |--③-|
口口口口 |④---|
⑥⑥⑤⑤ |⑤-⑥-|
95
口口⑤④ |--①-|
③③口口 |②---|
②②①① |③-④-|
口口口口 |⑤---|
96
①②口口 |①-②-|
口⑤④③ |③-④-|
⑥⑦口口 |⑤-⑥-|
口口口⑧ |⑦-⑧-|
97
③④口口 |①-②-|
口⑦⑥⑤ |③-④-|
⑧口口口 |⑤-⑥-|
口②①口 |⑦-⑧-|
98
⑤⑥口口 |①-②-|
口口⑧⑦ |③-④-|
口①口口 |⑤-⑥-|
口④③② |⑦-⑧-|
99
⑦⑧口口 |①-②-|
口①口口 |③-④-|
②③口口 |⑤-⑥-|
口⑥⑤④ |⑦-⑧-|
100
口口口口 |①-②-|
口③②① |③---|
口口口口 |----|
口口口口 |----|


不确定度: 0

最終更新:2012年11月10日 15:19