爆なな☆てすとロイヤー
ARM feat.ななひら

EXTREME

Level: 10
BPM: 200
Notes: 736

1
口口口口 |----|
口口口口 |----|
口口口口 |----|
口口口口 |----|
2
口口口口 |①---|
口口
口口
口口

口口口口
口口口 |----②-|
口口口口 |----|
口口口口 |----|
3
口口口口 |----|
口口口口 |----|
口口口口 |----|
口口口口 |----|
4
口口口口 |----|
口口口口 |----|
口口口口 |----|
口口口口 |----|
5
口口口口 |----|
口口口口 |----|
口口口口 |----|
口口口口 |----|
6
口③口口 |①---|
①口①口 |②-③-|
口②口口 |--④-|
⑤口④口 |⑤---|
7
口口③口 |①---|
口①口① |②-③-|
口口②口 |--④-|
口⑤口④ |⑤---|
8
口③口口 |①---|
①口①口 |②-③-|
口②口口 |--④-|
⑤口④口 |⑤---|
9
口口③口 |①---|
口①⑥① |②-③-|
口口②口 |--④-|
口⑤口④ |⑤-⑥-|
10
口①口① |①---|
口口口口 |----|
口口口口 |----|
口口口口 |----|
11
⑨口口⑨ |①②③④|
⑥②①口 |⑤-⑥-|
口④③⑦ |⑦-⑧-|
⑧口⑤口 |⑨---|
12
口①①口 |①-②③|
口口口口 |④-⑤⑥|
⑤⑥口口
口④③②

⑪⑫口口
口⑩⑨⑧
口口⑦口 |⑦-⑧⑨|
口口口口 |⑩-⑪⑫|
13
口口①口 |①-②-|
口口口口 |③---|
口口口③
②口③口

口口⑦⑤
口口⑤⑦
④口口口 |④-⑤-|
口口口⑥ |⑥-⑦-|
14
①①⑫⑪ |①-②③|
⑧⑨⑩口 |④-⑤⑥|
口⑦⑥⑤ |⑦-⑧⑨|
②③④口 |⑩-⑪⑫|
15
④①口口 |①-②-|
口口口口 |③-④-|
口口口口
③口口②

口⑫⑪口
⑩⑧口⑤
⑥口⑨⑦ |⑤⑥⑦⑧|
口口口口 |⑨⑩⑪⑫|
16
⑤口口⑪ |①②③④|
⑫口口⑥ |⑤-⑥-|
⑦⑧⑨⑩ |⑦⑧⑨⑩|
④③②① |⑪-⑫-|
17
④②口口 |①-②-|
口口⑤口 |③-④⑤|
口口口口
③①口口

口口⑨口
口⑧口口
⑩⑥口口 |⑥⑦⑧⑨|
口⑫⑪⑦ |⑩⑪⑫-|
18
口口口① |①---|
口口口② |----|
口口口口 |②---|
口口口口 |----|
19
①⑥⑥口 |①-②-|
⑤②口口 |③-④-|
③口口① |⑤---|
口④口⑤ |⑥---|
20
口口口口 |①---|
口②口⑥ |②-③-|
口口①⑤ |--④-|
口③口④ |⑤-⑥-|
21
⑤口口口 |①---|
口②口⑥ |②-③-|
口口①⑤ |--④-|
口③口④ |⑤-⑥-|
22
口口口口 |①---|
口②口⑥ |②-③-|
口口①⑤ |--④-|
口③口④ |⑤-⑥-|
23
①②④③ |①②-③|
⑤口口口 |④---|
口口⑦口 |⑤-⑥-|
口⑥口口 |⑦---|
24
口②口⑥ |①---|
口口①⑤ |②-③-|
口③口④ |--④-|
口口口口 |⑤-⑥-|
25
口②口⑥ |①---|
口口①⑤ |②-③-|
口③口④ |--④-|
口口口口 |⑤-⑥-|
26
②②口口 |①---|
口口口口 |----|
口口口口 |②---|
①①口口 |----|
27
口口⑤⑦ |①-②-|
口口⑥⑧ |③-④-|
①③口口 |⑤-⑥-|
②④口口 |⑦-⑧-|
28
⑥口口口 |①---|
④②口⑦ |②-③-|
②口①⑥ |④-⑤-|
①③口⑤ |⑥-⑦-|
29
⑥口口④ |①---|
④②口⑦ |②-③-|
②口①⑥ |④-⑤-|
①③口⑤ |⑥-⑦-|
30
⑥口口口 |①---|
④②口⑦ |②-③-|
②口①⑥ |④-⑤-|
①③口⑤ |⑥-⑦-|
31
⑤口⑥② |①--②|
④口②⑥ |--③-|
③①口口 |④-⑤-|
①③④⑤ |⑥---|
32
口口⑥口 |①-②-|
④③⑤口 |③-④-|
口⑤②① |⑤-⑥-|
口口⑦口 |--⑦-|
33
口口⑥口 |①-②-|
④③⑤口 |③-④-|
口⑤②① |⑤-⑥-|
口口⑦口 |--⑦-|
34
①口口① |①---|
③口口③ |②---|
②口口② |③---|
④口口④ |④---|
35
口口口口 |----|
口口 |----|
口口 |①---|
口口 |----|
36
口口口口 |----|
口口口口 |----|
口口口口 |----|
口口口口 |----|
37
口口口口 |----|
口口 |----|
口口口口 |①---|
口口口口 |----|
38
口口口口 |①---|
口口②口 |----|
口③口口 |--②-|
口①①口 |③---|
39
①口口① |①---|
口口口口 |----|
口口②口 |②---|
口口口口 |----|
40
口口口口 |①---|
口①口口 |----|
口②口口 |②---|
口口口口 |----|
41
口④⑦口 |①---|
口口⑤③ |②-③-|
口⑥②口 |④-⑤-|
口①①口 |⑥-⑦-|
42
①口口④ |①---|
口口口口 |②---|
口口口口 |③---|
②口口③ |④---|
43
口①①口 |①---|
口口②⑥ |②-③-|
⑤③口口 |④---|
口口④口 |⑤-⑥-|
44
①口口口 |①---|
口口②口 |②-③-|
口③⑤口 |④---|
口口④口 |⑤---|
45
④④④④ |①---|
③③③口 |②---|
②②口口 |③---|
①口口口 |④---|
46
口⑤口⑦ |①---②-|
④口⑥口 |----③-|
②③③① |④-⑤-|
②口口① |⑥-⑦-|
47
口④口口 |①---|
④口②口 |----|
口口口口 |--②-|
口③①① |③-④-|
48
口口口口 |----|
口③口① |----|
④口②口 |①-②-|
口口口口 |③-④-|
49
②①①口 |①---|
口口③口 |----|
④口口口 |--②-|
口④口口 |③-④-|
50
口口②② |----|
口口口口 |----|
口口口口 |①---|
口口①① |②---|
51
口口口⑤ |①-②-|
口③⑥① |③-④-|
④口②口 |----|
口口口口 |⑤-⑥-|
52
口口②口 |①---|
④口口② |②---|
③①口④ |③---|
口③口口 |④---|
53
②①口⑤ |①---|
口口③口 |②-③-|
口④口口 |④---|
②口①⑤ |⑤---|
54
③①②口 |①-②-|
口⑤口⑦ |--③-|
④口⑥口 |④-⑤-|
③①②口 |⑥-⑦-|
55
口口口口 |①---|
口口口口 |----|
口口口口
口①①口

口②口口
②口口口
口口口③ |----|
口口③口 |②-③-|
56
口③②① |----|
③口口口 |----|
②口口口 |①---②-|
①口口口 |--③---|
57
①口⑤口 |①---|
口③口⑤ |----|
口口②口 |②-③-|
口口④① |④-⑤-|
58
⑨口口⑥ |①-②-③-|
③⑧⑤⑫ |④-⑤-⑥-|
⑦②⑪④ |⑦-⑧-⑨-|
①口口⑩ |⑩-⑪-⑫-|
59
③①①② |①---|
口口口口 |--②-|
④口口④ |--③-|
②口口③ |--④-|
60
口④⑤口 |--①-|
④①口⑤ |②-③-|
口口②口 |④---|
口③口口 |⑤---|
61
口口① |①---|
口②口 |②---|
口口口
口口口

口③口口
④口口口
口口口口 |③---|
口口口口 |④---|
62
口口口 |①---|
口口口① |②---|
口口②口
口口口口

口口口
口③口
④口口 |③---|
口口口 |④---|
63
口口口 |①---|
口口口口 |②---|
口③口① |③---|
④口②口 |④---|
64
口口①⑦ |①-②-|
①①⑤③ |③-④-|
口口口② |⑤-⑥-|
口口④⑥ |⑦---|
65
①⑦口口 |①-②-|
⑤③口口 |③-④-|
口②①① |⑤-⑥-|
④⑥口口 |⑦---|
66
①口口① |①---|
⑤③③⑤ |②-③-|
口②②口 |④---|
④口口④ |⑤---|
67
①①①① |①---|
口口口口 |----|
口口口口
口口口口

④④口口
口③口口
②口口口 |--②-|
口口口口 |③-④-|
68
⑧⑧口② |①-②-|
口⑦③⑦ |③-④-|
⑥④口③ |⑤-⑥-|
口①⑤口 |⑦-⑧-|
69
口口⑥② |①-②-|
③口③⑦ |③-④-|
⑦④⑧口 |⑤-⑥-|
⑧①⑤口 |⑦-⑧-|
70
③④⑥⑥ |①---|
④⑤③⑤ |②-③-|
口口口② |④---|
口①④口 |⑤-⑥-|
71
⑧⑧口口 |①-②-|
口⑦口口 |③-④-|
⑥⑤⑤口 |⑤-⑥-|
①②④③ |⑦-⑧-|
72
⑧⑧口② |①-②-|
口⑦③⑦ |③-④-|
⑥④口③ |⑤-⑥-|
口①⑤口 |⑦-⑧-|
73
口口口② |①-②-|
③口③⑦ |③-④-|
口④口⑥ |⑤-⑥-|
口①口⑤ |⑦---|
74
⑦⑤③口 |①---|
口口口口 |②-③-|
①口①口 |④-⑤-|
⑥④②口 |⑥-⑦-|
75
⑫⑫⑩口 |①②③④|
④③②① |⑤⑥⑦⑧|
⑧⑦⑥⑤ |⑨-⑩-|
⑪口口⑨ |⑪-⑫-|
76
⑧⑧口② |①-②-|
口⑦③⑦ |③-④-|
⑥④口③ |⑤-⑥-|
口①⑤口 |⑦-⑧-|
77
口口口② |①-②-|
③口③口 |③-④-|
口④口口
口①口口

口口⑥口
口口口⑥
⑦口口口 |⑤-⑥-|
⑧⑧⑤口 |⑦-⑧-|
78
①①⑤⑤ |①---|
口口③④ |②-③-|
口②口口 |④---|
⑥⑥④③ |⑤-⑥-|
79
⑤⑥⑦⑧ |①---|
口①口③ |②-③④|
口口②④ |⑤-⑥-|
口⑦口⑤ |⑦-⑧-|
80
口口口⑤ |①---|
①口口口 |--②③|
①④③② |④---|
口口口口 |⑤---|
81
⑤口口口 |①---|
口口口口 |--②③|
②③④口 |④---|
口口①① |--⑤-|
82
口口③口 |①---|
口口①③ |--②-|
②口口口 |--③-|
⑤②口④ |④-⑤-|
83
④②口口 |①-②-|
口①①口 |--③-|
③③③③ |----|
口口口④ |④---|
84
⑥口①口 |①-②-|
口③②① |③-④-|
⑤④③口 |⑤---|
⑥⑤口口 |⑥---|
85
口①口⑥ |①-②-|
①②③口 |③-④-|
口③④⑤ |⑤---|
口口⑤⑥ |⑥---|
86
⑥口①口 |①-②-|
口③②① |③-④-|
⑤④③口 |⑤---|
⑥⑤口口 |⑥---|
87
⑥②口⑦ |①-②-|
⑧口③⑤ |③-④-|
口④口⑦ |⑤-⑥-|
⑧口①① |⑦-⑧-|
88
口①①口 |①-②③|
口口口口 |④-⑤⑥|
⑤⑥口口
口④③②

⑪⑫口口
口⑩⑨⑧
口口⑦口 |⑦-⑧⑨|
口口口口 |⑩-⑪⑫|
89
口口①口 |①-②-|
口口口口 |③---|
口口口③
②口③口

口口⑦⑤
口口⑤⑦
④口口口 |④-⑤-|
口口口⑥ |⑥-⑦-|
90
①①⑫⑪ |①-②③|
⑧⑨⑩口 |④-⑤⑥|
口⑦⑥⑤ |⑦-⑧⑨|
②③④口 |⑩-⑪⑫|
91
④①口口 |①-②-|
口口口口 |③-④-|
口口口口
③口口②

口⑫⑪口
⑩⑧口⑤
⑥口⑨⑦ |⑤⑥⑦⑧|
口口口口 |⑨⑩⑪⑫|
92
⑤口口⑪ |①②③④|
⑫口口⑥ |⑤-⑥-|
⑦⑧⑨⑩ |⑦⑧⑨⑩|
④③②① |⑪-⑫-|
93
④②口口 |①-②-|
口口⑤口 |③-④⑤|
口口口口
③①口口

口口⑨口
口⑧口口
⑩⑥口口 |⑥⑦⑧⑨|
口⑫⑪⑦ |⑩⑪⑫-|
94
口口口① |①---|
口口口② |----|
口口口口 |②---|
口口口口 |----|
95
①⑥⑥口 |①-②-|
⑤②口口 |③-④-|
③口口① |⑤---|
口④口⑤ |⑥---|
96
口口口⑤ |①---|
口①口④ |----|
口①口③ |②③④⑤|
①口①② |----|
97
口口③口 |①-②-|
②口口口 |③-④-|
口口①口 |----|
④④④④ |----|

不確定度: 0

最終更新:2017年06月21日 21:19