びいすと!
ビートまりおとARM

EXTREME

Level: 10
BPM: 200
Notes: 736

1
口口口口 |----|
①②③④ |----|
口口口口 |----|
口口口口 |①②③④|
2
①口③⑥ |①---|
口⑤口口 |②---|
②口④⑦ |③-④⑤|
口口口口 |⑥-⑦-|
3
③口④⑥ |①---|
②口⑤⑦ |②-③-|
口口口口 |④-⑤-|
①口口① |⑥-⑦-|
4
②③⑤⑥ |①---|
口口口口 |②-③-|
口口口口 |④---|
①口④口 |⑤-⑥-|
5
口口口口 |①---|
口②③④ |②-③-|
⑤口口⑤ |④---|
①口口① |⑤---|
6
①口⑤① |①---|
口④⑦口 |②---|
口③⑥口 |③-④⑤|
②口口② |⑥-⑦-|
7
①⑤⑤① |①---|
③⑦⑦③ |②-③-|
④口口④ |④-⑤-|
②⑥⑥② |⑥-⑦-|
8
②④④② |①---|
口口口口 |②---|
口①①口 |③---|
③口口③ |④---|
9
②④④② |①---|
口口口口 |②---|
口口口口 |③---|
③①①③ |④---|
10
⑥口⑧④ |①-②-|
①②②① |③-④-|
①⑤③① |⑤-⑥-|
口口⑦口 |⑦-⑧-|
11
⑥②⑦④ |①-②-|
口口口口 |③-④-|
口口口口 |⑤-⑥-|
⑤①⑧③ |⑦-⑧-|
12
⑥②⑧④ |①-②-|
口口口口 |③-④-|
口口口口 |⑤-⑥-|
⑤①⑦③ |⑦-⑧-|
13
⑥②⑧④ |①-②-|
口口口口 |③-④-|
口口口口 |⑤-⑥-|
⑤①⑦③ |⑦-⑧-|
14
口④口口 |①-②-|
①②②① |③-④-|
①③口①
口口口口

口口口⑥
⑧口口口
口口⑤口 |⑤-⑥-|
⑦口口口 |⑦-⑧-|
15
⑥口④⑧ |①-②-|
口⑤口③ |③-④-|
②口口⑦ |⑤-⑥-|
口①口口 |⑦-⑧-|
16
口口口口 |①---|
①②②② |----|
①①②口 |②---|
①①②口 |----|
17
口①口③ |①-②-|
①⑤⑤口 |③-④-|
口①口口 |⑤---|
①④④② |----|
18
②口口② |①---|
③④⑤⑥ |②---|
①口口① |③-④-|
口口口口 |⑤-⑥-|
19
口②②口 |--①-|
③④⑤⑥ |--②-|
口口口口 |③-④-|
口①①口 |⑤-⑥-|
20
②②④⑥ |①---|
口口口口 |②---|
①①③⑤ |③-④-|
口口口口 |⑤-⑥-|
21
口③⑥口 |--①-|
口②⑤口 |②-③-|
口①④口 |④-⑤-|
口口口口 |⑥---|
22
②口⑤② |①---|
口④口口 |②---|
口口口口 |③---|
①③③① |④-⑤-|
23
②口口② |--①-|
口口口口 |--②-|
①③⑥① |③-④-|
口④⑤口 |⑤-⑥-|
24
口口③口 |①---|
②口口② |②-③-|
口④⑦口 |④-⑤-|
①⑤⑥① |⑥-⑦-|
25
口③⑥口 |--①-|
口②⑤口 |②-③-|
①口口④ |④-⑤-|
口口口口 |⑥---|
26
⑥口⑩⑩ |①②③④|
⑤口⑧⑧ |⑤-⑥-|
口⑨⑦口 |⑦-⑧-|
①②③④ |⑨-⑩-|
27
⑥⑧口口 |①②③④|
⑤⑦口口 |⑤-⑥-|
⑨⑩⑪⑫ |⑦-⑧-|
①②③④ |⑨⑩⑪⑫|
28
④⑤口口 |①-②-|
②口口③ |--③-|
口口⑥口 |④-⑤-|
①口口⑦ |⑥-⑦-|
29
⑦口②② |①-②-|
④④①口 |③-④-|
⑦③⑥⑥ |⑤-⑥-|
口口⑤口 |⑦---|
30
⑩⑥口⑧ |①②③④|
口口③④ |⑤-⑥-|
⑨⑤口⑦ |⑦-⑧-|
①②口口 |⑨-⑩-|
31
口口⑥⑧ |①②③④|
①②⑤⑦ |⑤-⑥-|
⑨⑩⑪⑫ |⑦-⑧-|
口口③④ |⑨⑩⑪⑫|
32
口口口口 |①---|
口口口口
口口口口


口口口口
|②---|
口口口口 |③---|
口口口

口口口口
口口口
口口口口
口口口口 |④---|
33
|①-|
口口口口
口口口口
口口口口

口口口 |②-|
|③-|
口口口口
口口口口

口口口口
口口口 |④-|
|⑤-|
口口口口

口口口口
口口口口
口口口 |⑥-|
|⑦-|

口口口口
口口口口
口口口口
口口口 |⑧-|
34
③①②④ |①-②-|
口口口口 |③-④-|
口口口口 |⑤-⑥-|
⑦⑤⑥⑧ |⑦-⑧-|
35
口口口口 |①-②-|
③口口④ |----|
①口口② |③-④-|
口口口口 |----|
36
口口②口 |①---|
口②①② |----|
口口①① |②---|
口口①① |----|
37
口②口口 |①---|
②口①口 |----|
口②①① |②---|
②口①① |----|
38
口口口① |①-②-|
口③⑧⑤ |③-④-|
口⑦④② |⑤-⑥-|
口口口⑥ |⑦-⑧-|
39
③口④① |①-②-|
口口口口 |③-④-|
口口口②
口口口口

口⑦口⑧
口口口⑤
口口口口 |⑤-⑥-|
口口口⑥ |⑦-⑧-|
40
⑦⑧口口 |①-②-|
⑤⑥口口 |③-④-|
③④口口 |⑤-⑥-|
①②口口 |⑦-⑧-|
41
口口⑤④ |--①②|
④⑤②口 |③-④-|
①③③① |⑤---|
口②口口 |----|
42
口⑧⑦ |①-②-|
口⑥⑤ |③-④-|
口④③ |⑤-⑥-|
口②口 |⑦-⑧-|
43
|①---|
|----|

口口口口

口口口
口口口
口口口 |②---|
口口口 |③---|
44
口⑥⑦ |①-②-|
口④⑤ |③-④-|
口②③ |⑤-⑥-|
口⑧口 |⑦-⑧-|
45
|①---|
|----|

口口口口

口口口
口口口
口口口 |②---|
口口口 |③---|
46
|①---|
|----|
|----|
|----|
47
口口口 |①---|
口口口 |----|
口口口 |----|
口口口口 |----|
48
①②①② |①---|
口口口口 |----|
口口口口 |②---|
口口口口 |----|
49
口口口口 |①---|
①②③④ |②---|
口口口 |③---|
|④---|
50
①②④③ |①-②-|
⑤⑥⑧⑦ |③-④-|
口口口口 |⑤-⑥-|
口口口口 |⑦-⑧-|
51
口口口口 |①-②-|
口口口口 |③-④-|
⑤⑥⑧⑦ |⑤-⑥-|
①②④③ |⑦-⑧-|
52
口⑥口口 |①-②-|
②口⑧④ |③-④-|
口⑤口口 |⑤-⑥-|
①口⑦③ |⑦-⑧-|
53
②口口⑧ |①-②-|
口⑥口④ |③-④-|
①口⑦口 |⑤-⑥-|
⑤口口③ |⑦-⑧-|
54
口⑥口口 |①-②-|
②口④⑧ |③-④-|
①⑤口口 |⑤-⑥-|
口①⑦③ |⑦-⑧-|
55
⑥口口④ |①-②-|
②口⑧口 |③-④-|
口⑤③口 |⑤-⑥-|
①口⑦口 |⑦-⑧-|
56
口②口⑧ |①-②-|
⑥口口④ |③-④-|
①口⑦口 |⑤-⑥-|
口⑤口③ |⑦-⑧-|
57
口口口口 |①-|
口口口口

①口口口

③口口口 |②-|
|③-|
口口口
口口口口

口⑪⑫口
口⑨⑩ |④-|
口⑦⑧口 |⑤⑥⑦⑧|
口⑤⑥口 |⑨⑩⑪⑫|
58
口口口口 |①-②-|
①口口口
口口口口


口口口口
口口口口 |③-④-|

③口口

口口口口

口⑤口 |⑤-⑥-|
口口口口

口⑦口口
口口口
口口口口
口口口口 |⑦-|


口口口口
口口口口
口口口口 |⑧-|
59
口口口 |①-②-|
①口口口
口口口口


口口口口
口口口口 |③-④-|

③口口

口口口口

口⑤口 |⑤-⑥-|
口口口口

口⑦口口
口口口
口口口口
口口口口 |⑦-|


口口口口
口口口口
口口口口 |⑧-|
60
口口口 |①-②-|
①口口口
口口口口


口口口口
口口口口 |③-④-|

③口口

口口口口

口⑤口 |⑤-⑥-|
口口口口

口⑦口口
口口口
口口口口
口口口口 |⑦-|


口口口口
口口口口
口口口口 |⑧-|
61
口口口 |①-②-|
①口口口
口口口口


口口口口
口口口口 |③-④-|

③口口

口口口口

口⑤口 |⑤-⑥-|
口口口口

口⑦口口
口口口
口口口口
口口口口 |⑦-|


口口口口
口口口口
口口口口 |⑧-|
62
口口口 |①-②-|
①口口口
口口口口


口口口口
口口口口 |③-④-|

③口口

口口口口

口⑤口 |⑤-⑥-|
口口口口

口⑦口口
口口口
口口口口
口口口口 |⑦-|


口口口口
口口口口
口口口口 |⑧-|
63
口口口 |①-②-|
①口口口
口口口口


口口口口
口口口口 |③-④-|

③口口

口口口口

口⑤口 |⑤-⑥-|
口口口口

口⑦口口
口口口
口口口口
口口口口 |⑦-|


口口口口
口口口口
口口口口 |⑧-|
64
口口口 |①-②-|
①口口口
口口口口


口口口口
口③口口 |③-④-|

口口口

口口口口

⑤口口 |⑤-⑥-|
口口口口


口口口
口⑦口口
口口口口 |⑦-⑧-|
65
口⑨⑫ |①-②-|
⑦③②⑧ |③-④-|
口⑪⑥④ |⑤⑥⑦⑧|
⑤口⑩口 |⑨⑩⑪⑫|
66
①口口口 |①---|
口口口口 |--②-|
②口口口


④口口口
口③口口
口口口口 |--③-|
口口口口 |--④-|
67
口口口口 |①---|
②⑤⑥① |②---|
口③④口 |③-④-|
口口口 |⑤-⑥-|
68
④口⑦③ |①-②-|
④口口⑧ |③-④-|
①口口② |⑤-⑥-|
①口⑤⑥ |⑦-⑧-|
69
⑥⑤口口 |①-②-|
口口①口 |③-④-|
③②①④ |⑤-⑥-|
⑧⑦④口 |⑦-⑧-|
70
口口⑦⑧ |①-②-|
④①口⑥ |③-④-|
④①②⑤ |⑤-⑥-|
口口口③ |⑦-⑧-|
71
口口口口 |①--②|
⑤口④⑥ |③-④-|
⑦口②⑧ |⑤-⑥-|
①①④③ |⑦-⑧-|
72
④口②③ |①-②-|
口④口口 |③-④-|
口①⑦⑧ |⑤-⑥-|
①口⑤⑥ |⑦-⑧-|
73
⑦⑧①④ |①-②-|
口口④① |③-④-|
②③口口 |⑤-⑥-|
⑤⑥口口 |⑦-⑧-|
74
口口⑥⑧ |①-②-|
①①⑤⑦ |③-④-|
④④口③ |⑤-⑥-|
口口口② |⑦-⑧-|
75
口口口⑧ |①--②|
①①口口 |③-④-|
⑤⑥②口 |⑤-⑥-|
④口⑦③ |⑦-⑧-|
76
⑤口③口 |①-②③|
①口⑥④ |④-⑤-|
⑧口口⑦ |-⑥⑦-|
口口⑨② |⑧-⑨-|
77
⑤口③口 |①-②③|
①口⑥④ |④-⑤-|
⑧口口⑦ |-⑥⑦-|
口口⑨② |⑧-⑨-|
78
口口③口 |①-②③|
①⑥口④ |④-⑤-|
口口⑦口 |⑥--⑦|
⑤⑨⑧② |⑧-⑨-|
79
③④⑧③ |①-②-|
⑦口②口 |③-④-|
①口⑥① |⑤-⑥-|
⑤口口口 |⑦-⑧-|
80
口口口口 |①-②-|


口口②口

口④口③
⑤口 |--③-|
口⑦ |④-⑤-|
口口口口 |⑥-⑦-|
81
口口①口 |--①-|
口③口④ |--②-|
口口口口 |③-④-|
口⑤②⑥ |⑤-⑥-|
82
①②⑨⑩ |①-②-|
口口⑦⑧ |③-④-|
⑤⑥③④ |⑤⑥⑦⑧|
口口口口 |⑨-⑩-|
83
③口口口 |①--②|
②口口口 |③-④-|
口口口口
口①①④

口口口口

口口口⑥ |⑤-⑥-|
⑤口口口 |⑦---|
84
|①---|
口口口口 |----|
|----|
口口口口 |----|
85
口口口口 |----|
口口口口 |----|
口口口口 |----|
口口口口 |----|
86
口 |----|
口 |----|
口 |----|
口口口口 |--①-|
87
口口口口 |①---|
口口口口 |----|
②口口② |②---|
②①①② |----|

不確定度: 0

最終更新:2017年08月03日 01:24