にゃんのパレードマーチ♪
DJ TOTTO feat.にゃん

ADVANCED

Level: 7
BPM: 162
Notes: 496

1
口口口口 |----|
口口口口 |----|
口口口口 |----|
口口口口 |----|
2
①口口口 |①---|
口口口口 |----|
口口口口 |--②-|
②③④口 |③-④-|
3
④口口② |①---|
口口口⑤ |②---|
口口口口 |③---|
③口口① |④-⑤-|
4
口口口口 |①-②-|
口①②口 |③-④-|
口③④⑦ |⑤---|
口⑤口⑥ |⑥-⑦-|
5
口口口口 |①---|
④口口① |②-③-|
③⑥口口 |④---|
②口⑤口 |⑤-⑥-|
6
④③②① |①-②-|
口口⑤⑥ |③-④-|
口口口⑦ |⑤---|
口口口口 |⑥-⑦-|
7
口④②口 |①---|
口口口⑤ |②---|
口口口口 |③---|
③口口① |④-⑤-|
8
口口口口 |①-②-|
口①②口 |③-④-|
口③④⑦ |⑤---|
口⑤口⑥ |⑥-⑦-|
9
④口口口 |①---|
③口⑤① |②-③-|
②⑥口口 |④-⑤-|
口口⑦口 |⑥-⑦-|
10
口口口口 |①-②-|
口⑤⑤口 |③-④-|
口口④③ |⑤---|
①②口口 |----|
11
①口口① |①---|
口口口口 |----|
口口口口 |②---|
②口口② |----|
12
口口口口 |①---|
口①①口 |----|
口②②口 |②---|
口口口口 |----|
13
口⑧⑦口 |①-②-|
口⑥⑤口 |③-④-|
口④③口 |⑤-⑥-|
口②①口 |⑦-⑧-|
14
口口口口 |①②-③|
③⑥⑤① |④-⑤-|
口④②口 |⑥-⑦-|
口⑨⑧⑦ |⑧-⑨-|
15
②口口④ |①---|
⑤口口口 |②---|
口口口口 |③---|
①口口③ |④-⑤-|
16
口口口口 |①-②-|
口②①口 |③-④-|
⑦④③口 |⑤---|
⑥口⑤口 |⑥-⑦-|
17
口口口口 |①---|
①口口④ |②-③-|
口口⑥③ |④---|
口⑤口② |⑤-⑥-|
18
①②③④ |①-②-|
⑥⑤口口 |③-④-|
⑦口口口 |⑤---|
口口口口 |⑥-⑦-|
19
口②④口 |①---|
⑤口口口 |②---|
口口口口 |③---|
①口口③ |④-⑤-|
20
口口口口 |①-②-|
口②①口 |③-④-|
⑦④③口 |⑤---|
⑥口⑤口 |⑥-⑦-|
21
口口口④ |①---|
①⑤口③ |②-③-|
口口⑥② |④-⑤-|
口⑦口口 |⑥-⑦-|
22
口口口口 |①-②-|
口⑤⑤口 |③-④-|
③④口口 |⑤---|
口口②① |----|
23
②②④④ |①---|
⑤口口口 |②---|
口口口口 |③---|
①①③③ |④-⑤-|
24
⑥⑥口口 |①-②-|
⑦⑦⑤口 |③-④-|
口口②① |⑤---|
③④口口 |⑥-⑦-|
25
口口②② |①---|
口口③③ |②-③-|
①①口口
口口口口

口口口口
口口口口
⑥⑥④④ |④---|
⑤⑤口口 |⑤-⑥-|
26
⑤④③② |①-②-|
①①口口 |③-④-|
口口⑦⑦ |⑤---|
口口⑥⑥ |⑥-⑦-|
27
⑥口口⑤ |①---|
④④①① |②-③-|
③③口口 |④---|
②②口口 |⑤-⑥-|
28
口口口口 |①-②-|
口口口口 |③-④-|
口⑥⑤口 |⑤---|
④③②① |--⑥-|
29
口⑧①口 |①-②-|
⑦口口② |③-④-|
⑥口口③ |⑤-⑥-|
口⑤④口 |⑦-⑧-|
30
口口口口 |①-②-|
口②①口 |③-④-|
口④③口 |⑤---|
口口⑤口 |----|
31
口口口口 |①---|
口③②口 |----|
口②③口 |②---|
①口口① |③---|
32
④口口④ |①---|
③口口③ |②---|
②口口② |③---|
口①①口 |④---|
33
口口口口 |①---|
口②②口 |----|
口口口口 |②---|
口①①口 |----|
34
⑦⑤口⑥ |①-②-|
口口口口 |③-④-|
①②③④ |⑤-⑥-|
口口口口 |⑦---|
35
口口口口 |①---|
口口口口 |----|
③①①③ |②---|
口②②口 |③---|
36
②④④② |①---|
①口口① |②---|
口口口口 |③---|
口③③口 |④---|
37
口口口口 |①---|
②口口② |----|
口口口口 |②---|
①口口① |----|
38
口口口口 |①②-③|
口⑤⑥口 |④-⑤-|
①口口③ |⑥---|
口②④口 |----|
39
④口口口 |①---|
③口口口 |②---|
②口口口 |③---|
①口口口 |④---|
40
口①②③ |①---|
口口口④ |②---|
口口口口 |③---|
口口口口 |④---|
41
口口口口 |①---|
口口口口 |②---|
口口口① |③---|
口④③② |④---|
42
④口口口 |①---|
③口口口 |②---|
②口口口 |③---|
①口口口 |④---|
43
口①②③ |①---|
口口口④ |②---|
口口口口 |③---|
口口口口 |④---|
44
口口口口 |①---|
口口口口 |②---|
口口口① |③---|
口④③② |④---|
45
④口口口 |①---|
③口口口 |②---|
②口口口 |③---|
①口口口 |④---|
46
口①②③ |①---|
口口口口 |②---|
口口口口 |③---|
口口口口 |----|
47
口口口口 |①---|
①口口② |----|
口①②口 |②---|
口口口口 |----|
48
口口口口 |①---|
口③③口 |②---|
口②②口 |③---|
口①①口 |----|
49
口①②口 |①---|
①口口② |----|
口口口口 |②---|
口口口口 |----|
50
口口口口 |①---|
口①①口 |②---|
口②②口 |③---|
口③③口 |----|
51
口口口口 |①---|
②口口① |----|
②口口① |②---|
口口口口 |----|
52
口口口口 |①---|
口③③口 |②---|
口②②口 |③---|
口①①口 |----|
53
④口口④ |①---|
③口口③ |②---|
②口口② |③---|
①口口① |④---|
54
口①①口 |①---|
口②②口 |②---|
口③③口 |③---|
口口口口 |----|
55
口口口口 |①---|
①口口① |----|
①口口① |②---|
口②②口 |----|
56
口②②口 |①---|
④①①④ |②---|
口③③口 |③---|
口口口口 |④---|
57
①①①① |①---|
口口口口 |----|
口口口口 |②---|
口②②口 |----|
58
口④④口 |①---|
口③③口 |②---|
①口口① |③---|
②口口② |④---|
59
①口口① |①---|
②口口② |②---|
③口口③ |③---|
④口口④ |④---|
60
口⑤⑥口 |①②-③|
①口口③ |④-⑤-|
口②④口 |⑥-⑦-|
⑦⑧⑨口 |⑧-⑨-|
61
④④②② |①---|
口口口⑤ |②---|
口口口口 |③---|
③口口① |④-⑤-|
62
口口口口 |①-②-|
口①②口 |③-④-|
口③④⑦ |⑤---|
口⑤口⑥ |⑥-⑦-|
63
口口口口 |①---|
④口口① |②-③-|
③⑥口口 |④---|
②口⑤口 |⑤-⑥-|
64
④③②① |①-②-|
口口⑤⑥ |③-④-|
口口口⑦ |⑤---|
口口口口 |⑥-⑦-|
65
口④②口 |①---|
口口口⑤ |②---|
口口口口 |③---|
③口口① |④-⑤-|
66
口口口口 |①-②-|
口①②口 |③-④-|
口③④⑦ |⑤---|
口⑤口⑥ |⑥-⑦-|
67
④口口口 |①---|
③口⑤① |②-③-|
②⑥口口 |④-⑤-|
口口⑦口 |⑥-⑦-|
68
口口口口 |①-②-|
口⑤⑤口 |③-④-|
口口④③ |⑤---|
①②口口 |----|
69
②②④④ |①---|
⑤口口口 |②---|
口口口口 |③---|
①①③③ |④-⑤-|
70
⑥⑥口口 |①-②-|
⑦⑦⑤口 |③-④-|
口口②① |⑤---|
③④口口 |⑥-⑦-|
71
口口②② |①---|
口口③③ |②-③-|
①①口口
口口口口

口口口口
口口口口
⑥⑥④④ |④---|
⑤⑤口口 |⑤-⑥-|
72
⑤④③② |①-②-|
①①口口 |③-④-|
口口⑦⑦ |⑤---|
口口⑥⑥ |⑥-⑦-|
73
⑥口口⑤ |①---|
④④①① |②-③-|
③③口口 |④---|
②②口口 |⑤-⑥-|
74
口口口口 |①-②-|
口口口口 |③-④-|
口⑥⑤口 |⑤---|
④③②① |--⑥-|
75
口口口口 |①-②-|
口口口口 |③-④-|
⑦⑧⑥⑤ |⑤-⑥-|
③④②① |⑦-⑧-|
76
③④②① |①-②-|
⑥口⑥⑤ |③-④-|
⑥⑥⑥口 |⑤---|
⑥⑥⑥口 |⑥---|

不確定度: 0

最終更新:2017年08月03日 01:21