にゃんのパレードマーチ♪
DJ TOTTO feat.にゃん

EXTREME

Level: 9
BPM: 162
Notes: 662

1
口口口口 |----|
口口口口 |----|
口口口口 |----|
口口口口 |----|
2
①口口口 |①---|
口口口④ |----|
口口口③ |--②-|
口口口② |③-④-|
3
④口口① |①---|
口②口口 |②---|
口⑤口口 |③---|
③口口口 |④-⑤-|
4
口口②① |①-②③|
口⑥口③ |④-⑤-|
口口④⑤ |⑥---|
口⑦⑧口 |⑦-⑧-|
5
口口口口 |①---|
口⑤⑥口 |②-③-|
④③②口 |④---|
口口口① |⑤-⑥-|
6
①②口口 |①-②③|
③口口⑥ |④-⑤-|
⑤④口口 |⑥---|
口口⑧⑦ |⑦-⑧-|
7
④②口口 |①---|
口口⑤口 |②---|
口口口③ |③---|
口①口口 |④-⑤-|
8
口口②① |①-②③|
口⑥口③ |④-⑤-|
口口④⑤ |⑥---|
口⑧⑦口 |⑦-⑧-|
9
口口口③ |①---|
④口口口 |②-③-|
口口⑤口 |④-⑤-|
①⑥⑦② |⑥-⑦-|
10
②①口口 |①-②③|
口③⑥口 |④-⑤-|
④口口⑤ |⑥---|
口口口口 |----|
11
口②②口 |①---|
①口口① |----|
②口口② |②---|
口①①口 |----|
12
①口口① |①---|
口②②口 |----|
口①①口 |②---|
②口口② |----|
13
①⑤⑥② |①②③④|
③⑦⑧④ |⑤⑥⑦⑧|
⑨⑬⑭⑩ |⑨⑩⑪⑫|
⑪⑮⑯⑫ |⑬⑭⑮⑯|
14
①②⑥口 |①②-③|
⑨⑤④③ |④-⑤-|
⑧口口口 |⑥-⑦-|
⑦口口口 |⑧-⑨-|
15
①口口⑤ |①---|
口④口④ |②---|
口②④② |③---|
口口②③ |④-⑤-|
16
①②口口 |①-②③|
③口⑥口 |④-⑤-|
⑤④口口 |⑥---|
口⑧⑦口 |⑦-⑧-|
17
口口口口 |①---|
口⑥⑤口 |②-③-|
口②③④ |④---|
①口口口 |⑤-⑥-|
18
口口②① |①-②③|
⑥口口③ |④-⑤-|
口口④⑤ |⑥---|
⑦⑧口口 |⑦-⑧-|
19
口口⑤口 |①---|
②④②④ |②---|
③②④口 |③---|
口口①口 |④-⑤-|
20
①②口口 |①-②③|
③口⑥口 |④-⑤-|
⑤④口口 |⑥---|
口⑦⑧口 |⑦-⑧-|
21
③口口口 |①---|
口口口④ |②-③-|
口⑤口口 |④-⑤-|
②⑦⑥① |⑥-⑦-|
22
口口①② |①-②③|
口⑥③口 |④-⑤-|
⑤口口④ |⑥---|
口口口口 |----|
23
口口⑤口 |①---|
②④②④ |②---|
口②④口 |③---|
①口口③ |④-⑤-|
24
①②口口 |①-②③|
③口⑥口 |④-⑤-|
⑤④口口 |⑥---|
口⑧⑦口 |⑦-⑧-|
25
口口口口 |①---|
口⑥⑤口 |②-③-|
口②③④ |④---|
①口口口 |⑤-⑥-|
26
口口②① |①-②③|
⑥口口③ |④-⑤-|
口口④⑤ |⑥---|
⑦⑧口口 |⑦-⑧-|
27
口口②口 |①---|
口口③⑤ |②-③-|
口口④口 |④---|
⑥口①口 |⑤-⑥-|
28
①②口口 |①-②③|
③⑥口⑥ |④-⑤-|
⑤④⑥口 |⑥---|
口口口⑦ |--⑦-|
29
口⑤口⑤ |①-②-|
①④⑤⑧ |③-④-|
③②⑦⑥ |⑤-⑥-|
口口口口 |⑦-⑧-|
30
①口②口 |①-②-|
⑤口⑤口 |③-④-|
口⑤口口 |⑤---|
口③口④ |----|
31
⑤⑤②④ |①-②-|
⑦⑦⑥⑧ |③-④-|
③口④② |⑤-⑥-|
①①⑧⑥ |⑦-⑧-|
32
⑦⑦②④ |①-②-|
⑤⑤⑥⑧ |③-④-|
③③④② |⑤-⑥-|
①①⑧⑥ |⑦-⑧-|
33
口口②④ |①-②-|
口口口口 |③-④-|
①①④②
③口口口

口口口口
⑤⑤⑥⑧
口⑦口口 |⑤-⑥-|
口口⑧⑥ |⑦-⑧-|
34
①③②④ |①-②-|
⑦⑥⑥⑦ |③-④-|
口⑤④② |⑤-⑥-|
⑥⑦⑦⑥ |⑦---|
35
④②⑤⑤ |①-②-|
⑧⑥⑦⑦ |③-④-|
②④③① |⑤-⑥-|
⑥⑧口口 |⑦-⑧-|
36
④②⑦⑦ |①-②-|
⑧⑥⑤⑤ |③-④-|
②④③③ |⑤-⑥-|
⑥⑧①① |⑦-⑧-|
37
④②口口 |①-②-|
口口口口 |③-④-|
②④①①
口口口③

口口口口
⑧⑥⑤⑤
口口⑦口 |⑤-⑥-|
⑥⑧口口 |⑦-⑧-|
38
③④②① |①②-③|
口⑥⑤口 |④-⑤-|
⑥⑧⑨⑤ |⑥-⑦-|
⑦口口口 |⑧-⑨-|
39
②口口④ |①---|
口口口① |②---|
⑤口口口 |③---|
口口口③ |④-⑤-|
40
口口口口 |①-②③|
口②口口 |④-⑤-|
口④③①
口口口⑤

⑥口口口
口口口⑧
口口口⑦ |⑥---|
口口口口 |⑦-⑧-|
41
口⑥口① |①---|
④口口口 |②-③-|
③口口口 |④---|
②口⑤口 |⑤-⑥-|
42
⑦口口口 |①-②③|
⑧②口① |④-⑤-|
口④③口 |⑥---|
⑥口口⑤ |⑦-⑧-|
43
口④口② |①---|
口口口口 |②---|
①口口⑤ |③---|
口口③口 |④-⑤-|
44
①口口口 |①-②③|
口口②口 |④-⑤-|
口③④口
⑤口口口

⑦口⑥口
⑧口口口
口口口口 |⑥---|
口口口口 |⑦-⑧-|
45
⑥⑤④③ |①---|
⑦口口口 |②-③-|
①口口口 |④-⑤-|
口②口口 |⑥-⑦-|
46
口口口⑥ |①-②-|
口③⑤⑥ |③-④-|
①口口② |⑤---|
⑦⑧④口 |⑥-⑦⑧|
47
口④②口 |①---|
口口口口 |②---|
①口口口 |③---|
口口⑤③ |④-⑤-|
48
①口⑥② |①-②③|
⑦口③口 |④-⑤-|
口口口④ |⑥---|
⑤口口⑧ |⑦-⑧-|
49
⑦口⑨口 |①②③④|
口①②⑥ |⑤-⑥-|
口③④口 |⑦---|
口⑤口⑧ |⑧-⑨-|
50
口⑥口口 |①-②③|
②口口口 |④-⑤-|
①③口⑧ |⑥---|
④口⑤⑦ |⑦-⑧-|
51
③⑤④口 |①---|
口⑦⑥① |②-③-|
口口⑧口 |④⑤⑥⑦|
⑨②口口 |⑧-⑨-|
52
⑥口口① |①-②③|
口⑦口口 |④-⑤-|
口口⑧⑤ |⑥---|
口④③② |--⑦⑧|
53
口口口④ |①-②-|
口口口③ |③-④-|
口口口②
口口口①

口⑥⑤口
口口⑦口
口⑧口口 |⑤-⑥⑦|
口口口⑨ |⑧-⑨-|
54
②口④口 |①-②-|
⑤口⑤口 |③-④-|
口⑤口口 |⑤---|
①口③口 |----|
55
②②口口 |①---|
②②口口 |----|
口口①① |②---|
口口①① |----|
56
④④③③ |①---|
口②①口 |②---|
口①②口 |③---|
③③④④ |④---|
57
口口口口 |①---|
②①②① |----|
①②①② |②---|
口口口口 |----|
58
②口口② |①---|
②口口② |②---|
口口口口
①①①①

口③③口
口口口口
④③③④ |③---|
口④④口 |④---|
59
①⑤⑥② |①②③④|
③⑦⑧④ |⑤⑥⑦⑧|
⑨⑬⑭⑩ |⑨⑩⑪⑫|
⑪⑮⑯⑫ |⑬⑭⑮⑯|
60
①②⑥口 |①②-③|
⑨⑤④③ |④-⑤-|
⑧口口口 |⑥-⑦-|
⑦口口口 |⑧-⑨-|
61
①口口⑤ |①---|
口④口④ |②---|
口②④② |③---|
口口②③ |④-⑤-|
62
①②口口 |①-②③|
③口⑥口 |④-⑤-|
⑤④口口 |⑥---|
口⑧⑦口 |⑦-⑧-|
63
口口口口 |①---|
口⑥⑤口 |②-③-|
口②③④ |④---|
①口口口 |⑤-⑥-|
64
口口②① |①-②③|
⑥口口③ |④-⑤-|
口口④⑤ |⑥---|
⑦⑧口口 |⑦-⑧-|
65
口口⑤口 |①---|
②④②④ |②---|
③②④口 |③---|
口口①口 |④-⑤-|
66
①②口口 |①-②③|
③口⑥口 |④-⑤-|
⑤④口口 |⑥---|
口⑦⑧口 |⑦-⑧-|
67
③口口口 |①---|
口口口④ |②-③-|
口⑤口口 |④-⑤-|
②⑦⑥① |⑥-⑦-|
68
口口①② |①-②③|
口⑥③口 |④-⑤-|
⑤口口④ |⑥---|
口口口口 |----|
69
口口⑧口 |①-②-|
③⑦③⑦ |③-④-|
④③⑦② |⑤-⑥-|
①⑥口⑤ |⑦-⑧-|
70
①②口口 |①-②③|
③⑦⑥口 |④-⑤-|
⑤④口口 |⑥-⑦-|
口⑨⑧口 |⑧-⑨-|
71
⑥口②口 |①-②-|
口⑧⑦口 |③-④-|
口③④⑤ |⑤-⑥-|
①口口口 |⑦-⑧-|
72
口口②① |①-②③|
⑥口⑦③ |④-⑤-|
口口④⑤ |⑥-⑦-|
⑧⑨口口 |⑧-⑨-|
73
口口③口 |①-②-|
口②④⑦ |③-④-|
⑥口⑤口 |⑤-⑥-|
⑧口①口 |⑦-⑧-|
74
①②口口 |①-②③|
③⑥口⑥ |④-⑤-|
⑤④⑥口 |⑥---|
口口⑧⑦ |--⑦⑧|
75
⑥④⑤口 |①-②-|
口⑨③⑦ |③-④-|
⑧口口② |⑤-⑥⑦|
口①口口 |⑧-⑨-|
76
④⑥口⑥ |①-②-|
口口⑥⑤ |③-④-|
口⑥②⑥ |⑤---|
③口⑥① |⑥---|

不確定度: 0

最終更新:2017年08月03日 01:20