トキメキストリーム
Qrispy Joybox

BASIC

Level: 4
BPM: 164
Notes: 236

1
口口口口 |----|
口口口口 |----|
口口口口 |----|
口口口口 |----|
2
口口口口 |①---|
口口口口 |----|
口口口口 |----|
①口口口 |----|
3
口口口口 |①---|
口口口口 |----|
口口口口 |----|
口①口口 |----|
4
口口口口 |①---|
口口口口 |----|
口口口口 |----|
口口①口 |----|
5
口口口口 |①---|
口口口口 |----|
口口口口 |----|
口口口① |----|
6
口口口口 |①---|
口口口口 |②---|
口口口口 |③---|
①②③④ |④---|
7
口口口口 |①---|
口口口口 |②---|
①②③④ |③---|
口口口口 |④---|
8
口口口口 |①---|
①②③④ |②---|
口口口口 |③---|
口口口口 |④---|
9
口①①口 |①---|
口②②口 |②---|
口③③口 |③---|
口④④口 |④---|
10
口口口口 |①---|
口口③① |②---|
口口④② |③---|
口口口口 |④---|
11
口口口口 |①---|
①③口口 |②---|
②④口口 |③---|
口口口口 |④---|
12
口口口口 |①---|
口口③① |②---|
口口④② |③---|
口口口口 |④---|
13
口口口口 |①---|
口口口口 |②---|
口③④口 |③---|
口①②口 |④---|
14
口口口口 |①---|
①③口口 |②---|
②④口口 |③---|
口口口口 |④---|
15
口口口口 |①---|
口口③① |②---|
口口④② |③---|
口口口口 |④---|
16
口口口口 |①---|
①③口口 |②---|
②④口口 |③---|
口口口口 |④---|
17
口口口口 |①---|
口口口口 |②---|
口④③口 |③---|
口②①口 |④---|
18
口口口口 |①---|
①②口口 |----|
口口口口 |②---|
口口口口 |----|
19
口②②口 |①---|
口口①口 |----|
口口口口 |--②-|
口口口口 |----|
20
口口口口 |①---|
口口口口 |----|
口口②① |②---|
口口口口 |----|
21
口口口口 |①---|
口②②口 |----|
口①口口 |--②-|
口口口口 |----|
22
口口口口 |①---|
口口口口 |----|
①②口口 |②---|
口口口口 |----|
23
口口口口 |①---|
口②②口 |----|
口口①口 |--②-|
口口口口 |----|
24
口口口口 |①---|
口口口口 |----|
口口口口 |②---|
口口②① |----|
25
口口口口 |①---|
口口口口 |②---|
①口③口 |③---|
口②口④ |④---|
26
口口口口 |①---|
口口②① |----|
口口口口 |②---|
口口口口 |----|
27
口②②口 |①---|
口①口口 |----|
口口口口 |--②-|
口口口口 |----|
28
口口口口 |①---|
口口口口 |----|
①②口口 |②---|
口口口口 |----|
29
口口口口 |①---|
口②②口 |----|
口口①口 |--②-|
口口口口 |----|
30
口口口口 |①---|
口口口口 |----|
口口②① |②---|
口口口口 |----|
31
口口口口 |①---|
口②②口 |----|
口①口口 |--②-|
口口口口 |----|
32
口口口口 |①---|
口口口口 |----|
口口口口 |②---|
①②口口 |----|
33
口口口口 |①---|
口①①口 |----|
口①①口 |----|
口口口口 |----|
34
①口口① |①---|
口口口口 |--②-|
口②②口 |----|
口口口口 |----|
35
口口口口 |①---|
①口口① |--②-|
口口口口 |----|
口②②口 |----|
36
①口口① |①---|
口口口口 |--②-|
口②②口 |----|
口口口口 |----|
37
口口口口 |①---|
①口口① |--②-|
口口口口 |----|
口②②口 |----|
38
口口口口 |①---|
①口口① |--②-|
口口口口 |----|
口②②口 |----|
39
①口口① |①---|
口口口口 |--②-|
口②②口 |----|
口口口口 |----|
40
口口口口 |①---|
①口口① |--②-|
口口口口 |----|
口②②口 |----|
41
口④④口 |①---|
口③③口 |②---|
②口口② |③---|
①口口① |④---|
42
口口口口 |①---|
①口口④ |②---|
口②③口 |③---|
口口口口 |④---|
43
口口口口 |①---|
口③②口 |②---|
④口口① |③---|
口口口口 |④---|
44
口②③口 |①---|
①口口④ |②---|
口口口口 |③---|
口口口口 |④---|
45
口口口口 |①---|
口③④口 |②---|
口①②口 |③---|
口口口口 |④---|
46
口②③口 |①---|
①口口④ |②---|
口口口口 |③---|
口口口口 |④---|
47
④口口① |①---|
口③②口 |②---|
口口口口 |③---|
口口口口 |④---|
48
口口口口 |①---|
口②③口 |②---|
①口口④ |③---|
口口口口 |④---|
49
口口口口 |①---|
口口口口 |②---|
口③④口 |③---|
口①②口 |④---|
50
口口口口 |①---|
口②③口 |②---|
①口口④ |③---|
口口口口 |④---|
51
口口口口 |①---|
④口口① |②---|
口③②口 |③---|
口口口口 |④---|
52
口口口口 |①---|
口口口口 |②---|
口②③口 |③---|
①口口④ |④---|
53
口口口口 |①---|
口口口口 |②---|
口③④口 |③---|
口①②口 |④---|
54
口口口口 |①---|
口②③口 |②---|
①口口④ |③---|
口口口口 |④---|
55
口口口口 |①---|
④口口① |②---|
口③②口 |③---|
口口口口 |④---|
56
口口口口 |①---|
口②③口 |②---|
①口口④ |③---|
口口口口 |④---|
57
口口口口 |①---|
口③④口 |②---|
口①②口 |③---|
口口口口 |④---|
58
①口口① |①---|
口口口口 |--②-|
口②②口 |----|
口口口口 |----|
59
口口口口 |①---|
①口口① |--②-|
口口口口 |----|
口②②口 |----|
60
①口口① |①---|
口口口口 |--②-|
口②②口 |----|
口口口口 |----|
61
口口口口 |①---|
①口口① |--②-|
口口口口 |----|
口②②口 |----|
62
口口口口 |①---|
①口口① |--②-|
口口口口 |----|
口②②口 |----|
63
①口口① |①---|
口口口口 |--②-|
口②②口 |----|
口口口口 |----|
64
口口口口 |①---|
①口口① |--②-|
口口口口 |----|
口②②口 |----|
65
①口口① |①---|
口③③口 |--②-|
口②②口 |----|
口口口口 |③---|
66
①①①① |①---|
口口口口 |----|
口口口口 |----|
口口口口 |----|

不確定度: 0

最終更新:2017年06月21日 21:19