トキメキストリーム
Qrispy Joybox

ADVANCED

Level: 8
BPM: 164
Notes: 541

1
口口口口 |----|
口口口口 |----|
口口口口 |----|
口口口口 |----|
2
口口口口 |①--②|
口③口⑥ |--③-|
口口②⑤ |--④-|
口①口④ |⑤-⑥-|
3
④口口④ |①--②|
口③口口 |--③-|
口口②口 |--④-|
口①口口 |----|
4
口口口口 |①--②|
口③口⑥ |--③-|
口口②⑤ |--④-|
口①口④ |⑤-⑥-|
5
口口口口 |①--②|
口③口口 |--③-|
口口②口 |----|
口①口口 |----|
6
口口口口 |①--②|
口③口⑥ |--③-|
口口②⑤ |--④-|
口①口④ |⑤-⑥-|
7
④口口④ |①--②|
口③口口 |--③-|
口口②口 |--④-|
口①口口 |----|
8
口口口口 |①--②|
口③口⑥ |--③-|
口口②⑤ |--④-|
口①口④ |⑤-⑥-|
9
口①①口 |①---|
③口口④ |②---|
③口口④ |③---|
口②②口 |④---|
10
⑥②①⑦ |①②③④|
⑧④③⑨ |⑤-⑥⑦|
⑩口⑤口 |⑧⑨⑩-|
口口口口 |----|
11
⑦②①⑥ |①②③④|
口④③口 |⑤-⑥⑦|
口口⑤口 |--⑧-|
⑩⑨⑧口 |⑨-⑩-|
12
⑥②①⑦ |①②③④|
⑧④③⑨ |⑤-⑥⑦|
⑩口⑤口 |⑧⑨⑩-|
口口口口 |----|
13
⑥⑤④③ |①---|
口口口口 |②---|
口口口口 |③-④-|
②②①① |⑤-⑥-|
14
口口口口 |①②③④|
⑥②①⑦ |⑤-⑥⑦|
⑧④③⑨ |⑧⑨⑩-|
⑩口⑤口 |----|
15
⑩⑨⑧口 |①②③④|
⑦②①⑥ |⑤-⑥⑦|
口④③口 |--⑧-|
口口⑤口 |⑨-⑩-|
16
口口口口 |①②③④|
⑥②①⑦ |⑤-⑥⑦|
⑧④③⑨ |⑧⑨⑩-|
⑩口⑤口 |----|
17
口口口⑤ |①-②-|
口②⑥口 |③-④-|
口⑦③口 |⑤-⑥-|
⑧①①④ |⑦-⑧-|
18
①②③④ |①-②-|
口口口口 |③-④-|
⑧⑦⑥⑤ |⑤-⑥-|
口口口口 |⑦-⑧-|
19
口口口口 |①-②-|
口⑤⑤口 |③-④-|
口⑥⑥口 |--⑤-|
①②③④ |--⑥-|
20
口口口口 |①-②-|
⑧⑦⑥⑤ |③-④-|
口口口口 |⑤-⑥-|
①②③④ |⑦-⑧-|
21
①②③④ |①-②-|
口口口口 |③-④-|
口⑤⑤口 |--⑤-|
口口口口 |----|
22
①②③④ |①-②-|
口口口口 |③-④-|
⑧⑦⑥⑤ |⑤-⑥-|
口口口口 |⑦-⑧-|
23
口口口口 |①-②-|
口⑤⑤口 |③-④-|
口⑥⑥口 |--⑤-|
①②③④ |--⑥-|
24
口口口口 |①-②-|
⑧⑦⑥⑤ |③-④-|
口口口口 |⑤-⑥-|
①②③④ |⑦-⑧-|
25
②口口② |①---|
口④④口 |②---|
口口口口 |③---|
③①①③ |④---|
26
口⑥⑦口 |①-②-|
⑤口口⑧ |③-④-|
①口口④ |⑤-⑥-|
口②③口 |⑦-⑧-|
27
⑤口口⑤ |①-②-|
口口口口 |③-④-|
①口口④ |--⑤-|
⑥②③⑥ |--⑥-|
28
口⑥⑦口 |①-②-|
⑤口口⑧ |③-④-|
①口口④ |⑤-⑥-|
口②③口 |⑦-⑧-|
29
⑤口口⑤ |①-②-|
口口口口 |③-④-|
①口口④ |--⑤-|
口②③口 |----|
30
口⑥⑦口 |①-②-|
⑤口口⑧ |③-④-|
①口口④ |⑤-⑥-|
口②③口 |⑦-⑧-|
31
⑤口口⑤ |①-②-|
口口口口 |③-④-|
①口口④ |--⑤-|
⑥②③⑥ |--⑥-|
32
口⑥⑦口 |①-②-|
⑤口口⑧ |③-④-|
①口口④ |⑤-⑥-|
口②③口 |⑦-⑧-|
33
③口口③ |①--②|
口⑤⑤口 |--③-|
④②②④ |-④--|
口①①口 |⑤---|
34
口③③口 |①--②|
口⑥口口 |--③-|
口④⑤口 |--④-|
①①②② |⑤-⑥-|
35
口③③口 |①--②|
口口口口 |--③-|
口口口口 |----|
①①②② |----|
36
③口口③ |①--②|
口⑥口口 |--③-|
①④⑤② |--④-|
口①②口 |⑤-⑥-|
37
③口口③ |①--②|
口口口口 |--③-|
①④④② |--④-|
口①②口 |----|
38
口③③口 |①--②|
①⑥口② |--③-|
口④⑤口 |--④-|
口①②口 |⑤-⑥-|
39
口③③口 |①--②|
①口口② |--③-|
口口口口 |----|
口①②口 |----|
40
③口口③ |①--②|
口⑥口口 |--③-|
①④⑤② |--④-|
口①②口 |⑤-⑥-|
41
口④④口 |①---|
口口口口 |②---|
①口口② |③---|
①③③② |④---|
42
口口口口 |①②③④|
⑥②①⑦ |⑤-⑥⑦|
⑧④③⑨ |⑧⑨⑩-|
⑩口⑤口 |----|
43
⑦②①⑥ |①②③④|
口④③口 |⑤-⑥⑦|
口口⑤口 |--⑧-|
⑩⑨⑧口 |⑨-⑩-|
44
⑥②①⑦ |①②③④|
⑧④③⑨ |⑤-⑥⑦|
⑩口⑤口 |⑧⑨⑩-|
口口口口 |----|
45
⑥⑤④③ |①---|
口口口口 |②---|
口口口口 |③-④-|
②②①① |⑤-⑥-|
46
口口口口 |①②③④|
⑥②①⑦ |⑤-⑥⑦|
⑧④③⑨ |⑧⑨⑩-|
⑩口⑤口 |----|
47
⑩⑨⑧口 |①②③④|
⑦②①⑥ |⑤-⑥⑦|
口④③口 |--⑧-|
口口⑤口 |⑨-⑩-|
48
口口口口 |①②③④|
⑥②①⑦ |⑤-⑥⑦|
⑧④③⑨ |⑧⑨⑩-|
⑩口⑤口 |----|
49
③③②② |①-②-|
⑤口口⑥ |③-④-|
口④④口 |⑤-⑥-|
⑦①①⑧ |⑦-⑧-|
50
口口口口 |①②③④|
⑥②①⑦ |⑤-⑥⑦|
⑧④③⑨ |⑧⑨⑩-|
⑩口⑤口 |----|
51
⑦②①⑥ |①②③④|
口④③口 |⑤-⑥⑦|
口口⑤口 |--⑧-|
⑩⑨⑧口 |⑨-⑩-|
52
⑥②①⑦ |①②③④|
⑧④③⑨ |⑤-⑥⑦|
⑩口⑤口 |⑧⑨⑩-|
口口口口 |----|
53
⑥⑤④③ |①---|
口口口口 |②---|
口口口口 |③-④-|
②②①① |⑤-⑥-|
54
口口口口 |①②③④|
⑥②①⑦ |⑤-⑥⑦|
⑧④③⑨ |⑧⑨⑩-|
⑩口⑤口 |----|
55
⑩⑨⑧口 |①②③④|
⑦②①⑥ |⑤-⑥⑦|
口④③口 |--⑧-|
口口⑤口 |⑨-⑩-|
56
口口口口 |①②③④|
⑥②①⑦ |⑤-⑥⑦|
⑧④③⑨ |⑧⑨⑩-|
⑩口⑤口 |----|
57
⑤口口口 |①-②-|
口⑥②口 |③-④-|
口③⑦口 |⑤-⑥-|
④①①⑧ |⑦-⑧-|
58
口③②口 |①--②|
③⑥口② |--③-|
口④⑤口 |--④-|
口①①口 |⑤-⑥-|
59
④③②④ |①--②|
③口口② |--③-|
口口口口 |--④-|
口①①口 |----|
60
口③②口 |①--②|
口⑥口口 |--③-|
③④⑤② |--④-|
口①①口 |⑤-⑥-|
61
口③②口 |①--②|
③口口② |--③-|
口口口口 |----|
口①①口 |----|
62
口③②口 |①--②|
口⑥口口 |--③-|
③④⑤② |--④-|
口①①口 |⑤-⑥-|
63
④③②④ |①--②|
口口口口 |--③-|
③口口② |--④-|
口①①口 |----|
64
口③②口 |①--②|
③⑥口② |--③-|
口④⑤口 |--④-|
口①①口 |⑤-⑥-|
65
口③②口 |①--②|
③口口② |--③-|
口口口口
口①①口

口口口口
口④④口
口⑤⑤口 |--④-|
口⑥⑥口 |⑤-⑥-|
66
①口口① |①---|
口口口口 |----|
口口口口 |----|
口口口口 |----|

不確定度: 0

最終更新:2017年06月21日 21:19