トキメキストリーム
Qrispy Joybox

EXTREME

Level: 9
BPM: 164
Notes: 669

1
口口口口 |----|
口口口口 |----|
口口口口 |----|
口口口口 |----|
2
口口口口 |①--②|
口③口⑥ |--③-|
②口口⑤ |--④-|
口①口④ |⑤-⑥-|
3
口口④④ |①--②|
口③口口 |--③-|
②口口口 |--④-|
口①口口 |----|
4
口口口口 |①--②|
口③口⑥ |--③-|
②口口⑤ |--④-|
口①口④ |⑤-⑥-|
5
口口口口 |①--②|
口③口口 |--③-|
②口⑤④ |----|
口①口口 |④-⑤-|
6
③口口口 |①--②|
口③⑥② |--③-|
口口⑤口 |--④-|
①①④口 |⑤-⑥-|
7
③口口口 |①--②|
口③口② |--③-|
④口口④ |--④-|
①①口口 |----|
8
口口口③ |①--②|
②⑥③口 |--③-|
口⑤口口 |--④-|
口④①① |⑤-⑥-|
9
②②③③ |①---|
②口口③ |②---|
④口口① |③---|
④④①① |④---|
10
①⑤⑩⑥ |①②③④|
⑤②⑦⑩ |⑤-⑥⑦|
口⑧③口 |⑧⑨⑩-|
⑨口口④ |----|
11
①⑤口⑥ |①②③④|
⑤②⑦口 |⑤-⑥⑦|
口口③口
口口口④

口口口口
口⑩口口
口⑨口口 |--⑧-|
口⑧口口 |⑨-⑩-|
12
⑤③②⑤ |①②③④|
④口口① |⑤-⑥⑦|
⑩⑧⑦⑩ |⑧⑨⑩-|
⑨口口⑥ |----|
13
①口①口 |①---|
③①④口 |②---|
口⑤②⑥ |③-④-|
口②口② |⑤-⑥-|
14
①⑤⑩⑥ |①②③④|
⑤②⑦⑩ |⑤-⑥⑦|
口⑧③口 |⑧⑨⑩-|
⑨口口④ |----|
15
①⑤口⑥ |①②③④|
⑤②⑦口 |⑤-⑥⑦|
口口③口
口口口④

口口口口
口⑩口口
口⑨口口 |--⑧-|
口⑧口口 |⑨-⑩-|
16
⑤③②⑤ |①②③④|
④口口① |⑤-⑥⑦|
⑩⑧⑦⑩ |⑧⑨⑩-|
⑨口口⑥ |----|
17
④口②③ |①-②-|
口④③② |③-④-|
口口口口
口①①口

口⑤口口
⑤口口口
⑦⑥⑥⑦ |⑤-⑥-|
口⑧⑧口 |⑦-⑧-|
18
⑧口口④ |①-②-|
⑥⑦③② |③-④-|
口⑤⑤口 |⑤-⑥-|
①口口① |⑦-⑧-|
19
口⑤⑤④ |①-②-|
口口③② |③-④-|
口⑥⑥口 |--⑤-|
口①①口 |--⑥-|
20
⑧口口④ |①-②-|
⑥⑦③② |③-④-|
口口口口 |⑤-⑥-|
⑤①①⑤ |⑦-⑧-|
21
口⑤⑤④ |①-②-|
口口③② |③-④-|
口①①口 |--⑤-|
口口口口 |----|
22
⑧口口④ |①-②-|
⑥⑦③② |③-④-|
口⑤⑤口 |⑤-⑥-|
口①①口 |⑦-⑧-|
23
口⑤⑤④ |①-②-|
口口③② |③-④-|
口口口口 |--⑤-|
⑥①①⑥ |--⑥-|
24
⑧口口④ |①-②-|
⑥⑦③② |③-④-|
口⑤⑤口 |⑤-⑥-|
口①①口 |⑦-⑧-|
25
④口口口 |①---|
③④口口 |②---|
②③④口 |③---|
①②③④ |④---|
26
⑤口①口 |①-②-|
④⑤⑧① |③-④-|
③口⑦口 |⑤-⑥-|
②口⑥口 |⑦-⑧-|
27
⑤口①⑤ |①-②-|
口④口① |③-④-|
口③口口 |--⑤-|
⑥②口⑥ |--⑥-|
28
⑤口①口 |①-②-|
⑧⑤④① |③-④-|
⑦口③口 |⑤-⑥-|
⑥口②口 |⑦-⑧-|
29
⑤口①⑤ |①-②-|
口④口① |③-④-|
口③口口 |--⑤-|
口②口口 |----|
30
口①口⑤ |①-②-|
①④⑤⑧ |③-④-|
口③口⑦ |⑤-⑥-|
口②口⑥ |⑦-⑧-|
31
⑤①口⑤ |①-②-|
①口④口 |③-④-|
口口③口 |--⑤-|
⑥口②⑥ |--⑥-|
32
口⑤①口 |①-②-|
⑤⑧④① |③-④-|
口⑦③口 |⑤-⑥-|
口⑥②口 |⑦-⑧-|
33
⑦口口① |①②-③|
⑧口⑨② |④-⑤⑥|
③口⑩⑤ |-⑦⑧-|
④口⑪⑥ |⑨⑩⑪-|
34
口口①① |①--②|
③口口③ |--③-|
③口口③
②②口口

口⑤⑤口
口⑥⑥口
口④④口 |--④-|
口口口口 |⑤-⑥-|
35
①口口② |①--②|
口口口口 |--③-|
口③③口 |----|
口②①口 |----|
36
①①口口 |①--②|
③口口③ |--③-|
③口口③
口口②②

口⑤⑤口
口⑥⑥口
口④④口 |--④-|
口口口口 |⑤-⑥-|
37
②口口① |①--②|
口口口口 |--③-|
口③③口 |--④-|
④①②④ |----|
38
口①①口 |①--②|
③口口③ |--③-|
③口口③
口②②口

口⑤⑤口
口口口口
口⑥⑥口 |--④-|
④口口④ |⑤-⑥-|
39
①口口② |①--②|
口③③口 |--③-|
口口口口 |----|
口②①口 |----|
40
①④④② |①--②|
口⑥⑦口 |--③-|
③⑦⑥③ |④-⑤-|
⑤②①⑤ |⑥-⑦-|
41
③②口④ |①---|
①③④① |②---|
口④③口 |③---|
④口②③ |④---|
42
口口⑤⑩ |①②③④|
口口⑩⑤ |⑤-⑥⑦|
④⑧⑦① |⑧⑨⑩-|
⑨③②⑥ |----|
43
⑥②③口 |①②③④|
①⑦口④ |⑤-⑥⑦|
⑤口口⑩ |--⑧-|
口⑤⑨⑧ |⑨-⑩-|
44
⑤②⑤④ |①②③④|
①⑦③⑨ |⑤-⑥⑦|
⑥口⑧口 |⑧⑨⑩-|
口⑩口⑩ |----|
45
口②口① |①---|
②口①口 |②---|
口口口口
口口口口

⑥口口⑤
口⑤⑥口
口④③口 |③-④-|
口口口口 |⑤-⑥-|
46
口口⑤⑩ |①②③④|
口口⑩⑤ |⑤-⑥⑦|
④⑧⑦① |⑧⑨⑩-|
⑨③②⑥ |----|
47
⑥②③口 |①②③④|
①⑦口④ |⑤-⑥⑦|
⑤口口⑩ |--⑧-|
口⑤⑨⑧ |⑨-⑩-|
48
⑤②⑤④ |①②③④|
①⑦③⑨ |⑤-⑥⑦|
⑥口⑧口 |⑧⑨⑩-|
口⑩口⑩ |----|
49
③②④⑤ |①-②-|
②③⑤④ |③-④-|
⑧口⑦⑧ |⑤-⑥-|
口⑥①口 |⑦-⑧-|
50
口①⑥口 |①②③④|
②⑤⑤⑦ |⑤-⑥⑦|
口③⑧口 |⑧⑨⑩-|
④⑩⑩⑨ |----|
51
⑦①口⑥ |①②③④|
②⑤⑤口 |⑤-⑥⑦|
口③口⑩ |--⑧-|
④口⑨⑧ |⑨-⑩-|
52
口①⑥口 |①②③④|
②⑤⑤⑦ |⑤-⑥⑦|
口③⑧口 |⑧⑨⑩-|
④⑩⑩⑨ |----|
53
①口②口 |①---|
口①口② |②---|
③口口⑥ |③-④-|
口④⑤口 |⑤-⑥-|
54
口①⑥口 |①②③④|
②⑤⑤⑦ |⑤-⑥⑦|
口③⑧口 |⑧⑨⑩-|
④⑩⑩⑨ |----|
55
⑦①口⑥ |①②③④|
②⑤⑤口 |⑤-⑥⑦|
口③口⑩ |--⑧-|
④口⑨⑧ |⑨-⑩-|
56
口①⑥口 |①②③④|
②⑤⑤⑦ |⑤-⑥⑦|
口③⑧口 |⑧⑨⑩-|
④⑩⑩⑨ |----|
57
③②④口 |①-②-|
②③口④ |③-④-|
①口口①
口口口口

口口口⑤
口口⑤口
⑧⑥⑥⑧ |⑤-⑥-|
⑦口口⑦ |⑦-⑧-|
58
口③②口 |①--②|
②⑥⑥③ |--③-|
口⑤⑤口 |--④-|
④①①④ |⑤-⑥-|
59
③口口② |①--②|
②④④③ |--③-|
口⑤⑤口 |--④-|
口①①口 |--⑤-|
60
口③②口 |①--②|
②⑥⑥③ |--③-|
口⑤⑤口 |--④-|
④①①④ |⑤-⑥-|
61
②口口③ |①--②|
③④④② |--③-|
口口口口 |----|
口①①口 |④---|
62
口③②口 |①--②|
②⑥⑥③ |--③-|
⑤口口⑤ |--④-|
④①①④ |⑤-⑥-|
63
④③②④ |①--②|
口口口口 |--③-|
口②③口 |--④-|
口①①口 |----|
64
口③②口 |①--②|
②⑥⑥③ |--③-|
⑤口口⑤ |--④-|
④①①④ |⑤-⑥-|
65
③④④② |①--②|
②⑤⑤③ |--③-|
⑥口口⑥ |--④-|
口①①口 |⑤-⑥-|
66
口口口口 |①---|
口口口口 |----|
口口口口 |----|
①①①① |----|

不確定度: 0

最終更新:2017年06月21日 21:18