翡翠の狼
米津玄師

EXTREME

Level: 8
BPM: 121
Notes: 597

1
口口口口 |----|
口口口口 |----|
口口口口 |----|
口口口口 |----|
2
口口④③ |①--②|
⑤⑥口口 |③④⑤⑥|
①②口①
①口口①

⑩口口口
口口⑧口
⑨口口口 |⑦-⑧-|
口口⑦口 |⑨-⑩-|
3
⑩口④③ |①--②|
⑤⑥⑧口 |③④⑤⑥|
⑨②口口 |⑦-⑧-|
①口⑦① |⑨-⑩-|
4
⑩口④③ |①--②|
⑤⑥⑧口 |③④⑤⑥|
⑨②口口 |⑦-⑧-|
①口⑦① |⑨-⑩-|
5
口口⑥⑤ |①--②|
③④口口 |③④⑤⑥|
口口②口
①口口①

口口口口
口口⑧⑨
口口⑨⑧ |⑦-⑧-|
口⑦⑦口 |⑨---|
6
⑩口④③ |①--②|
⑤⑥⑧口 |③④⑤⑥|
⑨②口口 |⑦-⑧-|
①口⑦① |⑨-⑩-|
7
⑩口④③ |①--②|
⑤⑥⑧口 |③④⑤⑥|
⑨②口口 |⑦-⑧-|
①口⑦① |⑨-⑩-|
8
⑩口④③ |①--②|
⑤⑥⑧口 |③④⑤⑥|
⑨②口口 |⑦-⑧-|
①口⑦① |⑨-⑩-|
9
口口⑥⑤ |①--②|
③④口口 |③④⑤⑥|
口口②口
①口口①

口口口口
口口⑧⑨
口⑩⑨⑧ |⑦-⑧-|
口⑦⑦口 |⑨-⑩-|
10
①①③② |①-②-|
⑧④口口 |③-④-|
口口口⑥ |⑤-⑥-|
口⑤⑦口 |⑦-⑧-|
11
口口口① |①-②-|
口口②口 |③-④-|
口口口③
口口④口

口口口口
⑤⑤⑦口
口⑥口口 |⑤---|
口口口口 |⑥-⑦-|
12
口②①口 |①-②-|
②③口① |③-④-|
口④口口
口口口口

口口口口
⑧口口⑧
⑦口⑥⑦ |⑤-⑥-|
口⑤口口 |⑦-⑧-|
13
①口口① |①-②-|
口口②口 |③-④-|
口③口口
口口④口

口口口口
口⑤口⑤
口⑦口口 |⑤---|
口⑥口⑥ |⑥--⑦|
14
口③②口 |①-②-|
③④口② |③-④-|
口口①口
口口口口

口口口口
⑧口口口
口口口⑥ |⑤-⑥-|
口⑤⑦口 |⑦-⑧-|
15
口口口① |①-②-|
口口②口 |③-④-|
口口口③
口口④口

口口口口
⑤⑤⑦口
口⑥口口 |⑤---|
口口口口 |⑥-⑦-|
16
口②①口 |①-②-|
②③口① |③-④-|
口④口口
口口口口

口⑧口口
口口⑦口
口口口⑥ |⑤-⑥-|
口⑤口口 |⑦-⑧-|
17
口口①口 |①-②-|
口②口口 |③-④-|
口口③口
口④口口

⑨口口口
口⑧⑤⑤
⑦⑩口口 |⑤-⑥-|
口口⑥⑥ |⑦⑧⑨⑩|
18
口③②口 |①-②-|
③④口② |③-④-|
口口①口
口口口口

口口口口
⑧口口口
口口口⑥ |⑤-⑥-|
口⑤⑦口 |⑦-⑧-|
19
口口口① |①-②-|
口口②口 |③-④-|
口口口③
口口④口

口口口口
⑤⑤⑦口
口⑥口口 |⑤---|
口口口口 |⑥-⑦-|
20
口②①口 |①-②-|
②③口① |③-④-|
口④口口
口口口口

口口口口
⑧口口⑧
⑦口⑥⑦ |⑤-⑥-|
口⑤口口 |⑦-⑧-|
21
①口口① |①-②-|
口口②口 |③-④-|
口③口口
口口④口

口口⑥口
口⑤⑦⑤
口⑨口口 |⑤-⑥⑦|
口⑧口⑧ |⑧--⑨|
22
口口③② |①-②-|
口④口口 |③-④-|
口口①口
口口口口

⑨口口口
口口口口
⑦口⑧⑥ |⑤-⑥-|
口⑤口口 |⑦⑧⑨-|
23
口口口① |①-②-|
口口②口 |③-④-|
口口口③
口口④口

口口口口
⑤⑤⑦口
口⑥口口 |⑤---|
口口口口 |⑥-⑦-|
24
口②①口 |①-②-|
②③口① |③-④-|
口④口口
口口口口

口⑧口口
口口⑦口
口口口⑥ |⑤-⑥-|
口⑤口口 |⑦-⑧-|
25
口口①口 |①-②-|
口②口口 |③-④-|
口口③口
口④口口

口⑦⑦口
口口⑤⑤
口口口口 |⑤-⑥-|
⑥口口⑥ |⑦---|
26
④⑤③⑤ |①---|
⑥④⑥③ |②--③|
①①①① |④---|
口②②口 |⑤-⑥-|
27
口③口口 |①---|
③口口口 |②--③|
口①口①
口②②口

口口口④
口口④口
口⑤口口 |④---|
口⑥口口 |⑤-⑥-|
28
口②①口 |①-②-|
口口口口 |③-④-|
②口③①
口口④口

⑤⑧⑦⑤
口⑥⑥口
口⑦⑧口 |⑤-⑥-|
口口口口 |⑦-⑧-|
29
②口口② |①-②-|
⑥③③⑥ |③-④-|
④口口④ |⑤---|
①⑤⑤① |⑥---|
30
④⑤③⑤ |①---|
⑥④⑥③ |②--③|
口①①口 |④---|
口②②口 |⑤-⑥-|
31
口③口口 |①---|
③口口口 |②--③|
口①口①
口②②口

口口口④
口口④口
口⑤口口 |④---|
口⑥口口 |⑤-⑥-|
32
口②①口 |①-②-|
口口口口 |③-④-|
②口③①
口口④口

⑤⑧口⑤
⑥口口⑥
⑦口⑧⑦ |⑤-⑥-|
口口口口 |⑦-⑧-|
33
口③①口 |①---|
③④口口 |②---|
④①口口 |③---|
口②②口 |④---|
34
口口②② |①-②-|
口口③③ |③-④-|
口①④④
①口①①

口口口口
⑤⑤口口
⑥⑥口口 |⑤-⑥-|
⑦⑦⑧口 |⑦-⑧-|
35
①①③① |①-②-|
④②④② |③-④-|
③口口口
口口口口

⑦⑦口口
口口口口
⑧⑤⑦⑤ |⑤-⑥-|
⑥⑥⑧⑥ |⑦-⑧-|
36
口口③② |①-②-|
①④④① |③-④-|
口②口口
③口口口

⑤口口口
⑥口口口
⑦口⑧⑥ |⑤-⑥-|
口⑧⑦⑤ |⑦-⑧-|
37
口①③① |①-②-|
③④④② |③-④-|
口②口口
口口口口

⑥⑥口口
⑧口口口
⑤口⑦⑤ |⑤-⑥-|
⑦⑦⑧⑥ |⑦-⑧-|
38
④④④① |①-②-|
口②③② |③-④-|
③①口口
口口口口

口口口口
口口口口
口⑧⑧⑥ |⑤-⑥-|
⑤⑤⑦⑤ |⑦-⑧-|
39
①③口① |①-②-|
②④②④ |③-④-|
口口口③
口口口口

口口⑦⑦
口口口口
⑤⑦⑤⑧ |⑤-⑥-|
⑥⑧⑥⑥ |⑦-⑧-|
40
②③口口 |①-②-|
①④④① |③-④-|
口口②口
口口口③

口口口⑤
口口口⑥
⑥⑧口⑦ |⑤-⑥-|
⑤⑦口口 |⑦-⑧-|
41
①③①⑧ |①-②-|
②④⑤③ |③-④-|
⑤⑦②⑦ |⑤-⑥-|
⑥⑧⑥④ |⑦-⑧-|
42
①③①口 |①-②-|
②④口③ |③-④-|
口口②④
口口口口

口口⑦⑥
口口⑦口
⑤⑦口口 |⑤-⑥-|
⑥⑦⑤⑤ |⑦---|
43
①①④③ |①--②|
⑤⑥口口 |③④⑤⑥|
②口①①
口口口口

⑩口口口
口口⑧口
⑨口口口 |⑦-⑧-|
口口⑦口 |⑨-⑩-|
44
⑩口④③ |①--②|
⑤⑥⑧口 |③④⑤⑥|
⑨②口口 |⑦-⑧-|
①口⑦① |⑨-⑩-|
45
⑩口④③ |①--②|
⑤⑥⑧口 |③④⑤⑥|
⑨②口口 |⑦-⑧-|
①口⑦① |⑨-⑩-|
46
口口⑥⑤ |①--②|
③④口口 |③④⑤⑥|
口口②口
①口口①

口口口口
口口⑧⑨
口口⑨⑧ |⑦-⑧-|
口⑦⑦口 |⑨---|
47
⑩口④③ |①--②|
⑤⑥⑧口 |③④⑤⑥|
⑨②口口 |⑦-⑧-|
①口⑦① |⑨-⑩-|
48
⑩口④③ |①--②|
⑤⑥⑧口 |③④⑤⑥|
⑨②口口 |⑦-⑧-|
①口⑦① |⑨-⑩-|
49
⑩口④③ |①--②|
⑤⑥⑧口 |③④⑤⑥|
⑨②口口 |⑦-⑧-|
①口⑦① |⑨-⑩-|
50
口口⑥⑤ |①--②|
③④口口 |③④⑤⑥|
口口②口
①口口①

⑧⑧口口
口口⑧⑨
⑨⑨⑨⑧ |⑦-⑧-|
口⑦⑦口 |⑨---|

不確定度: 0

最終更新:2017年08月13日 13:24