Lead Me
SHOGO

BASIC

Level: 3
BPM: 172
Notes: 205

1
口口口口 |----|
口口口口 |----|
口口口口 |----|
口口口口 |----|
2
口①①口 |①---|
口②②口 |----|
口口口口 |②---|
口口口口 |----|
3
口口口口 |①---|
口口口口 |②---|
①②③④ |③---|
口口口口 |④---|
4
口口口口 |①---|
口口口口 |----|
①口②口 |②---|
口口口口 |----|
5
口③②口 |①---|
口①口口 |----|
口口口口 |②---|
口口口口 |③---|
6
口口口口 |①---|
口口①口 |----|
口②口口 |②---|
口口③口 |③---|
7
口口口口 |①---|
口口口口 |②---|
口口②口 |----|
口①口口 |----|
8
口①①口 |①---|
口口②③ |----|
口口口口 |②---|
口口口口 |③---|
9
口口口口 |①---|
②①口口 |②---|
口④④口 |③---|
口③③口 |④---|
10
口口口口 |①---|
口①①口 |----|
口口口口 |----|
口口口口 |----|
11
①①①① |①---|
口口口口 |----|
口口口口 |----|
口口口口 |----|
12
口口口口 |----|
口口口口 |----|
口口口口 |----|
口口口口 |----|
13
口口口口 |----|
口口口口 |----|
口口口口 |----|
口口口口 |----|
14
口①口口 |①---|
口②口口 |----|
口口口口 |②---|
口口口口 |----|
15
口口口口 |①---|
口口口口 |----|
口①口口 |②---|
口②口口 |----|
16
口口口口 |①---|
口①口口 |②---|
口②口口 |③---|
口③④口 |④---|
17
口④③口 |①---|
口口②口 |②---|
口口①口 |③---|
口口口口 |④---|
18
口口口口 |①---|
口口口口 |----|
口①①口 |②---|
口②②口 |----|
19
口口口口 |----|
口口口口 |----|
口口口口 |----|
口口①口 |①---|
20
口口口口 |①---|
口口②口 |----|
口口①口 |②---|
口口③口 |③---|
21
口口口口 |①---|
口口②口 |----|
口口①口 |②---|
口口口口 |----|
22
口口①口 |①---|
口口②口 |----|
口口口口 |②---|
口口口口 |----|
23
口口口口 |①---|
口口口口 |----|
口口①口 |②---|
口口②口 |----|
24
口口口口 |①---|
口口①口 |②---|
口口②口 |③---|
口④③口 |④---|
25
口③④口 |①---|
口②口口 |②---|
口①口口 |③---|
口口口口 |④---|
26
口口口口 |①---|
口口口口 |----|
口①①口 |②---|
口②②口 |----|
27
口口口口 |----|
口口口口 |----|
口②口口 |①---|
口①口口 |②---|
28
口②口口 |①---|
口①口口 |②---|
口④口口 |③---|
口③口口 |④---|
29
口口口口 |----|
口口口口 |----|
②口口② |①---|
口①①口 |②---|
30
口口口口 |①---|
①口口① |----|
口口口口 |----|
口口口口 |----|
31
②口口② |①---|
口口口口 |----|
①口口① |②---|
口口口口 |----|
32
口①口口 |①---|
口口②口 |②---|
口③口口 |③---|
口口口口 |----|
33
口口口口 |----|
口口口口 |----|
口口口口 |----|
口口口口 |----|
34
口口口口 |①---|
①口口① |----|
口口口口 |----|
口口口口 |----|
35
口口口口 |①---|
①口④① |②---|
口③口口 |③---|
口口②口 |④---|
36
口①①口 |①---|
口口口口 |----|
口口口口 |----|
口口口口 |----|
37
口口口口 |①---|
口①①口 |----|
口口口口 |②---|
口②②口 |----|
38
口口口口 |①---|
②口口② |----|
①口口① |②---|
口口口口 |----|
39
口口口口 |①---|
②口口② |----|
①口口① |②---|
口口口口 |----|
40
①口②① |①---|
口口口口 |----|
口口口口 |----|
口口口口 |②---|
41
口口口口 |①---|
口口①口 |②---|
口口②口 |③---|
口④③口 |④---|
42
口口口口 |①---|
口①①口 |----|
口②②口 |②---|
口口口口 |----|
43
口①②口 |----|
口口口口 |①---|
口③口口 |②---|
口口口口 |③---|
44
口口口口 |①---|
口口口口 |----|
口口①口 |----|
口②②口 |--②-|
45
口口口口 |----|
口①①口 |----|
口②②口 |①---|
口口口口 |②---|
46
口①①口 |①---|
口②②口 |----|
口口口口 |②---|
口口口口 |----|
47
口口口口 |①---|
口口口口 |②---|
①②③④ |③---|
口口口口 |④---|
48
口口口口 |①---|
口口口口 |----|
①口②口 |②---|
口口口口 |----|
49
口③②口 |①---|
口①口口 |----|
口口口口 |②---|
口口口口 |③---|
50
口口口口 |①---|
口口①口 |----|
口②口口 |②---|
口口③口 |③---|
51
口口口口 |①---|
口③④口 |②---|
口口②口 |③---|
口①口口 |④---|
52
口①①口 |①---|
口口口口 |----|
口口口口 |----|
口口口口 |----|
53
口口口口 |①---|
口②②口 |----|
口①①口 |②---|
口口口口 |----|
54
口①①口 |①---|
口②②口 |----|
口口口口 |②---|
口口口口 |----|
55
口口口口 |①---|
口口口口 |②---|
①②③④ |③---|
口口口口 |④---|
56
口口口口 |①---|
口口口口 |----|
①口②口 |②---|
口口口口 |----|
57
口③②口 |①---|
口①口口 |----|
口口口口 |②---|
口口口口 |③---|
58
口口口口 |①---|
口②①口 |②---|
口③口口 |③---|
口口④口 |④---|
59
口口口口 |①---|
口③口口 |----|
口口②口 |②---|
口①口口 |③---|
60
口①①口 |①---|
口口口口 |----|
口口口口 |----|
口口口口 |----|
61
口口口口 |①---|
口口口口 |----|
口①①口 |----|
口口口口 |----|
62
口口口口 |①---|
口口②① |----|
口口口口 |②---|
口口口口 |----|
63
口口口口 |①---|
口①②口 |----|
口口口口 |②---|
口口口口 |----|
64
口口口口 |①---|
②①口口 |----|
口口口口 |②---|
口口口口 |----|
65
口口口口 |①---|
②①口口 |----|
口口口口 |②---|
口口口口 |----|
66
口口口口 |①---|
口②②口 |----|
口①①口 |②---|
口口口口 |----|
67
口①口口 |----|
口口口口 |----|
口口口口 |①---|
口口口口 |----|
68
口口①口 |①---|
口②口口 |----|
口口口口 |②---|
口口口口 |----|
69
口口口口 |①---|
口口①口 |----|
口口③② |②---|
口口口口 |③---|
70
口口口口 |①---|
口口口口 |②---|
②①口口 |----|
口口口口 |----|
71
口口口口 |----|
口口口口 |①---|
口口口口 |----|
口①①口 |----|


不确定度: 0

最終更新:2012年11月10日 15:18