Bonjour, The World!!
中島由貴 feat.dj TAKA with S-C-U meets Akhuta

ADVANCED

Level: 7
BPM: 158
Notes: 507

1
口口口口 |----|
口口口口 |----|
口③④口 |①-②-|
口①②口 |③-④-|
2
①①②② |①---|
口③③口 |②---|
④口口④ |③--④|
口⑤⑤口 |--⑤-|
3
①口口口 |--①-|
②口口④ |②-③-|
③③口⑤ |--④-|
口口⑥⑥ |⑤-⑥-|
4
②口口② |--①-|
口③③口 |②--③|
口①①口
口口口口

口口口口
口口口口
④⑤⑤④ |--④-|
口口口口 |-⑤--|
5
③④②① |①-②-|
口⑤⑤口 |③-④-|
⑥口口⑥ |⑤--⑥|
口⑦⑦口 |--⑦-|
6
口②②口 |--①-|
口④④① |②---|
⑤⑥口口 |③-④-|
③口口口 |⑤-⑥-|
7
口③②① |①-②-|
口口⑧口 |③-④-|
口⑦口口 |⑤-⑥-|
④⑤⑥口 |⑦-⑧-|
8
口①②口 |--①-|
口⑤⑤口 |②--③|
④口口④ |--④-|
口③③口 |-⑤--|
9
①②⑤④ |①-②-|
③⑦⑧⑥ |③-④-|
口口口口 |⑤-⑥-|
口口口口 |⑦-⑧-|
10
①①②② |①---|
口⑤⑤口 |②---|
④口口④ |③--④|
口③③口 |--⑤-|
11
①口口口 |--①-|
②口口④ |②-③-|
③③口⑤ |--④-|
口口⑥⑥ |⑤-⑥-|
12
②口口② |--①-|
口③③口 |②--③|
口①①口
口口口口

口口口口
口口口口
④⑤⑤④ |--④-|
口口口口 |-⑤--|
13
②口口① |①-②-|
④⑧⑧③ |③-④-|
⑥口口⑤ |⑤-⑥-|
口口口⑦ |⑦-⑧-|
14
②口口② |----|
口口口口 |--①-|
口①①口 |----|
口口口口 |--②-|
15
口口口口 |--①-|
口①④口 |②-③-|
口⑤②口 |--④-|
口③⑥口 |⑤-⑥-|
16
④⑤⑤④ |--①-|
③⑤⑤口 |②-③-|
①口口② |④---|
口口口口 |--⑤-|
17
口口口口 |----|
口口口口 |----|
口口口口 |----|
口口口口 |----|
18
口口口口 |--①-|
口口口口 |②---|
口口口口
口①②口

口口口口
口③口口
口④口口 |③--④|
口⑤口口 |--⑤-|
19
⑤口口⑤ |----|
口③④口 |--①-|
口口②口 |②-③④|
口口口① |--⑤-|
20
口口口口 |--①-|
口口口口 |②---|
口口口口
口①②口

口口口口
口③口口
口④口口 |③--④|
口⑤口口 |--⑤-|
21
口口口⑤ |----|
④口口口 |--①-|
口口口③ |②-③-|
②口①口 |④-⑤-|
22
口口口口 |--①-|
口口口口 |②---|
口口口口
口①②口

口口口口
口③口口
口④口口 |③--④|
口⑤口口 |--⑤-|
23
④口口口 |----|
口③口口 |--①-|
口口②口 |②-③-|
口⑤⑤① |④-⑤-|
24
口①①口 |①--②|
②口口② |--③-|
口③③口
口口口口

口口④④
口口④④
口口口口 |----|
口口口口 |--④-|
25
①①口口 |--①-|
①①口口 |----|
口口口口 |----|
口口口口 |----|
26
口口口口 |--①-|
口口口口 |②---|
口口口口
口①②口

口口口口
口③口口
口④口口 |③--④|
口⑤口口 |--⑤-|
27
①口口口 |----|
②④口口 |--①-|
③⑤口口 |②-③-|
口口口口 |④-⑤-|
28
口口口口 |--①-|
口③口口 |②---|
口④口① |③--④|
口⑤②口 |--⑤-|
29
⑤⑤口口 |----|
口③④口 |--①-|
口④②口 |②-③-|
口口口① |④-⑤-|
30
口口口口 |--①-|
口口口口 |②---|
口口口口
口①②口

口口口口
口③口口
口④口口 |③--④|
口⑤口口 |--⑤-|
31
④④②② |----|
口口口口 |--①-|
口⑤⑤口 |②-③-|
③③①① |④-⑤-|
32
④口口口 |①--②|
口①①⑤ |--③-|
②口口② |--④-|
口③③口 |--⑤-|
33
③口口④ |①-②-|
③⑤⑤④ |----|
口①②口 |③-④-|
口口口口 |--⑤-|
34
口口口③ |--①-|
口口④口 |②---|
口⑤口口 |③--④|
口①②口 |--⑤-|
35
口口口口 |----|
①③③② |----|
口口口口 |①-②-|
口口口口 |--③-|
36
④口口③ |--①-|
口口口口 |②---|
口口①口 |③-④-|
口②口⑤ |--⑤-|
37
口口口口 |--①-|
⑤①②口 |②---|
④口口口 |--③-|
③口口口 |④-⑤-|
38
④口口口 |--①-|
口口口口 |②-③-|
口口口③ |----|
口口②① |④---|
39
口③③口 |①---|
口口口① |②-③-|
②⑤④口 |--④-|
口口口口 |--⑤-|
40
口口口口 |----|
③口口口 |----|
②口口口 |--①-|
①口口口 |②-③-|
41
②口口① |----|
②③③① |----|
口口口口 |①-②-|
口口口口 |--③-|
42
③口口口 |--①-|
口④口口 |②---|
口口⑤口 |③--④|
口②①口 |--⑤-|
43
口口口口 |----|
①③③② |----|
口口口口 |①-②-|
口口口口 |--③-|
44
③口口④ |--①-|
口口口口 |②---|
⑤口口口 |③--④|
口①②口 |--⑤-|
45
口④④口 |①-②-|
口①口③ |③-④-|
口口②口 |----|
口⑤⑤口 |--⑤-|
46
①④④① |①--②|
⑤②②⑤ |--③-|
③⑥⑥③ |④--⑤|
口口口口 |--⑥-|
47
③口口② |①---|
口口口口 |----|
口口口口 |②---|
②①①③ |③---|
48
⑤③③⑤ |①---|
①⑤⑤② |②-③-|
①口口② |--④-|
口④④口 |--⑤-|
49
口口口口 |----|
口②口② |----|
口口①口 |①---|
口①口口 |②---|
50
①口②口 |①---|
①口②口 |②---|
口口口口
口口口口

口口口口
④口口④
口口⑤口 |③--④|
口③③⑤ |--⑤-|
51
口口口① |--①-|
口③②口 |②-③-|
口口口口
口口口口

⑥④⑤⑥
④口口⑤
口口口口 |④--⑤|
口口口口 |--⑥-|
52
口③③口 |--①-|
口口口口 |②-③-|
口①口口
口口②口

口口口口
口口口口
口⑤⑤口 |--④-|
④口口④ |--⑤-|
53
④口口④ |--①-|
口③口口 |②-③-|
口⑤⑤口 |④--⑤|
⑥①②⑥ |--⑥-|
54
口④口口 |--①-|
③口口口 |②-③-|
②口口口 |④---|
口①口口 |----|
55
口口④口 |--①-|
口口⑤③ |②-③-|
口⑤口② |④---|
口口①口 |--⑤-|
56
②口口② |--①-|
⑤①口⑤ |②---|
口口①口 |③-④-|
③④④③ |--⑤-|
57
口②口口 |--①-|
口②口口 |----|
①③③① |②---|
口口口口 |③---|
58
①口②口 |①---|
①口②口 |②---|
口口口口
口口口口

口口口口
④口口④
口口⑤口 |③--④|
口③③⑤ |--⑤-|
59
口口口① |--①-|
口③②口 |②-③-|
口口口口
口口口口

⑥④⑤⑥
④口口⑤
口口口口 |④--⑤|
口口口口 |--⑥-|
60
⑥③③⑥ |--①-|
口口口口 |②-③-|
口①②口 |--④-|
口④⑤口 |⑤-⑥-|
61
口口口口 |----|
口口口口 |----|
口口口口 |----|
口口口口 |----|
62
②口②口 |①---|
口口口口 |②---|
口口口口
口①①口

口⑥口⑥
口③口口
口口④口 |③-④-|
口⑤口⑤ |⑤-⑥-|
63
口口口口 |①-②-|
④口①④ |③-④-|
口③口口
②口②口

口⑤⑤口
口口口口
口口口口 |--⑤-|
⑥口口⑥ |--⑥-|
64
口口口口 |----|
口口口口 |----|
口口口口 |----|
口①①口 |--①-|
65
①⑦⑦② |--①-|
③①②④ |②-③-|
⑤③④⑥ |④-⑤-|
口⑤⑥口 |⑥-⑦-|
66
①⑤⑤② |①---|
口①②口 |②---|
④口口④ |③--④|
口③③口 |--⑤-|
67
①口口口 |--①-|
②口口④ |②-③-|
③③口⑤ |--④-|
口口⑥⑥ |⑤-⑥-|
68
②口口② |--①-|
口③③口 |②--③|
口①①口
口口口口

口口口口
口口口口
④⑤⑤④ |--④-|
口口口口 |-⑤--|
69
②口口① |①-②-|
④⑧⑧③ |③-④-|
⑥口口⑤ |⑤-⑥-|
口口口⑦ |⑦-⑧-|
70
②口口② |----|
口口口口 |--①-|
口①①口 |----|
口口口口 |--②-|
71
口口口口 |--①-|
口①④口 |②-③-|
口⑤②口 |--④-|
口③⑥口 |⑤-⑥-|
72
④⑤⑤④ |--①-|
③⑤⑤口 |②-③-|
①口口② |④---|
口口口口 |--⑤-|
73
口口口口 |----|
口①口① |----|
口口①口 |----|
口①口口 |--①-|

不確定度: 1

最終更新:2017年03月17日 01:36