Bonjour, The World!!
中島由貴 feat.dj TAKA with S-C-U meets Akhuta

EXTREME

Level: 9
BPM: 158
Notes: 708

1
口口口口 |----|
口口口口 |----|
⑤⑥⑦⑧ |①②③④|
①②③④ |⑤⑥⑦⑧|
2
①口口① |①---|
②口口② |②---|
口口口口
口口口口

⑤口口⑤
口③④口
口口口口 |③④-⑤|
⑥口口⑥ |--⑥-|
3
③⑧⑧④ |--①-|
⑦口口⑦ |②-③④|
①⑤⑥② |-⑤⑥-|
口①②口 |⑦-⑧-|
4
④⑥⑥口 |-①②③|
⑤口口⑤ |④--⑤|
口⑨⑧⑦ |--⑥-|
①②③口 |-⑦⑧⑨|
5
①口口② |①--②|
口③口口 |--③-|
口口口口
口口口口

口⑧口⑨
口口口口
⑧口⑨口 |④⑤⑥⑦|
④⑤⑥⑦ |⑧-⑨-|
6
④⑤口口 |-①②③|
口③②① |④--⑤|
口⑧⑦⑥ |⑥⑦⑧-|
⑨⑩⑪⑫ |⑨⑩⑪⑫|
7
⑤口口口 |①②③④|
①②③④ |⑤-⑥⑦|
⑥⑦口口
口口口口

口⑩口⑪
口⑫口口
口口⑧⑨ |⑧⑨⑩-|
口口口口 |⑪-⑫-|
8
④口口口 |-①②③|
口口口口 |④-⑤⑥|
①②③口
口⑤⑥口

口⑦⑧口
口口口口
口口⑪口 |-⑦⑧-|
⑨口口⑩ |⑨⑩-⑪|
9
⑤⑧⑦⑥ |①②③④|
①②③④ |⑤-⑥⑦|
⑪⑫⑬⑭ |⑧-⑨⑩|
口⑨⑩口 |⑪⑫⑬⑭|
10
⑤口口⑤ |①---|
⑥①①⑥ |②---|
口③④口 |③④-⑤|
②口口② |--⑥-|
11
⑤⑧⑧⑥ |--①-|
口③④口 |②-③④|
①⑦⑦② |-⑤⑥-|
口①②口 |⑦-⑧-|
12
⑤口口⑤ |-①②③|
④口口④ |④--⑤|
口口口口
①②③口

口口口口
口口口口
口⑥⑥口 |--⑥-|
⑦⑧⑨口 |-⑦⑧⑨|
13
②③③② |①--②|
①口口① |--③-|
口口口口
口口口口

口口口口
⑩口口⑩
口⑧⑨口 |④⑤⑥⑦|
④⑤⑥⑦ |⑧⑨⑩-|
14
②口口② |----|
口口口口 |--①-|
口口口口 |----|
①口口① |--②-|
15
④口口④ |--①-|
①口口① |②-③-|
⑤②②⑤ |--④-|
③⑥⑥③ |⑤-⑥-|
16
⑧⑦⑦⑧ |--①②|
③④⑤⑥ |③④⑤⑥|
⑧①②⑧ |⑦---|
口口口口 |--⑧-|
17
口口口口 |----|
口口口口 |----|
口口口口 |----|
口口口口 |----|
18
口口口③ |--①-|
口口④口 |②---|
口口口⑤ |③--④|
①②口口 |--⑤-|
19
⑤口口⑤ |----|
口④③口 |--①-|
②口口口 |②-③④|
口①口口 |--⑤-|
20
口③口口 |--①-|
④口口口 |②---|
口⑤口② |③--④|
口口口① |--⑤-|
21
①口口⑤ |----|
口口④④ |--①-|
口③③③ |②-③-|
②②②② |④-⑤-|
22
②口口⑤ |--①-|
口口④口 |②---|
①口口③ |③--④|
口口口口 |--⑤-|
23
口①③口 |----|
①口口③ |--①-|
②⑤⑤④ |②-③-|
口②④口 |④-⑤-|
24
②口口① |①--②|
③口④③ |--③-|
口④口④ |----|
①口④② |--④-|
25
口口口口 |--①-|
口①口① |----|
口口①口 |----|
口①口① |----|
26
②口口③ |①-②-|
口②③口 |③---|
口口口口
口①①口

口④⑤口
口口口口
口④⑤口 |④--⑤|
口⑥⑥口 |--⑥-|
27
③口①口 |----|
③②①口 |--①-|
③口①口 |②-③-|
口④④口 |--④-|
28
③④①① |--①-|
⑤⑤②② |②---|
④③口口 |③--④|
口口口口 |--⑤-|
29
口⑤口口 |----|
⑤④③口 |--①-|
口③②① |②-③-|
口口①口 |④-⑤-|
30
②⑤⑤① |--①-|
口口口口 |②---|
③口口④ |③--④|
口③④口 |--⑤-|
31
②口口④ |----|
口②④口 |--①-|
口①③口 |②-③-|
①⑤⑤③ |④-⑤-|
32
④①①口 |①--②|
②口口② |--③-|
口③③口 |--④-|
口口⑤口 |--⑤-|
33
口口口② |①-②-|
口口①口 |----|
口口口口
口口口口

口口④⑤
③口⑤口
口⑤口④ |③-④-|
⑤③口口 |--⑤-|
34
①③④口 |--①-|
口⑤口② |②---|
②口⑤口 |③--④|
口④③① |--⑤-|
35
口口口口 |--①-|
①口口② |②---|
口口口口
口口口口

口口⑤④
⑤口③口
口③口⑤ |③-④-|
④⑤口口 |--⑤-|
36
①口口口 |--①-|
口口③口 |②---|
口④口口 |③--④|
口⑤⑤② |--⑤-|
37
口①②口 |--①-|
①口口② |②---|
口口口口
口口口口

口口口口
⑤口口口
④口口口 |--③-|
③口口口 |④-⑤-|
38
④口口口 |--①-|
口④口口 |②-③-|
口口口③ |----|
口口②① |④---|
39
口①④③ |①---|
①⑤③④ |②-③-|
⑤口口口 |--④-|
口②⑥口 |⑤-⑥-|
40
口口口口 |①---|
①口口③ |②-③-|
口①③口
②口口口

④口口口
⑤口④口
口口口④ |--④-|
口⑥⑥口 |⑤-⑥-|
41
③①口口 |----|
口③口② |----|
①口③口 |①-②-|
口口②③ |--③-|
42
口⑤口① |--①-|
口口④口 |②---|
口③口口 |③--④|
②口口口 |--⑤-|
43
口口口口 |--①-|
口口口口 |②---|
①口口②
口口口口

④⑤口口
口③口⑤
⑤口③口 |③-④-|
口口⑤④ |--⑤-|
44
⑤口口① |--①-|
口口③口 |②---|
口④口口 |③--④|
②口口口 |--⑤-|
45
口口②口 |①-②-|
口④④口 |③-④-|
口④④口 |----|
③⑤⑤① |--⑤-|
46
③①①口 |①--②|
①③口① |--③-|
口口口口
②口口②

口⑤⑤④
口口④口
口口口口 |④--⑤|
口⑥⑥口 |--⑥-|
47
口口口口 |①--②|
①口③① |--③-|
口③口口
②口口②

⑦④口⑤
口口口口
⑥口口④ |④--⑤|
口⑥口⑦ |⑥-⑦-|
48
口口②③ |①---|
口①③② |②-③-|
口口①口
口口口口

口口口口
⑤⑤口口
口④⑤口 |--④-|
④口⑤口 |--⑤-|
49
②①②① |----|
②②①口 |----|
②①②口 |①---|
口口口口 |②---|
50
口口口② |①---|
口口口② |②---|
口口口①
口口口①

④口④口
口④③口
④③③⑤ |③--④|
③③⑤口 |--⑤-|
51
④口口⑤ |--①-|
①⑥③口 |②-③-|
口②⑥口 |④--⑤|
⑤口口④ |--⑥-|
52
⑤①①④ |--①-|
③⑤④③ |②-③-|
③④⑤③ |--④-|
④②②⑤ |--⑤-|
53
⑧口口⑦ |--①②|
口⑨⑤⑥ |③④⑤⑥|
③④⑨口 |⑦--⑧|
⑦②①⑧ |--⑨-|
54
口④口口 |--①-|
③口口口 |②-③-|
②⑤⑤口 |④---|
口①口口 |⑤---|
55
⑤口④⑤ |--①-|
口口口③ |②-③-|
口⑥⑥② |④---|
口口①口 |⑤-⑥-|
56
口①③⑥ |--①-|
①⑤⑤③ |②-③-|
②⑥口④ |④-⑤-|
口②④口 |--⑥-|
57
①③口③ |--①-|
口③③口 |----|
②③口③ |②---|
②②口① |③---|
58
①口口口 |①---|
①口口口 |②---|
②口口口
②口口口

⑤④口④
口口④③
口④③③ |③--④|
口③③⑤ |--⑤-|
59
⑤⑥⑥④ |--①-|
口①口口 |②-③-|
⑥口②⑥ |④--⑤|
④③口⑤ |--⑥-|
60
④口口⑤ |--①-|
①④⑤② |②-③-|
口③③口 |--④-|
口⑥⑥口 |⑤-⑥-|
61
口③③口 |--①-|
①口口② |②-③-|
④⑤⑥口 |--④-|
口口口口 |⑤-⑥-|
62
口②②口 |①---|
口口口口 |②---|
口口口口
口①口①

⑥口口口
口口口③
口⑤④口 |③-④-|
口⑥口口 |⑤-⑥-|
63
口④④② |①-②-|
口①③口 |③-④-|
口口口口
口口②口

口口口口
口口口口
⑥口口⑤ |--⑤-|
口⑤⑥口 |--⑥-|
64
口口①口 |--①-|
口口口口 |②---|
口②口口
口口口口

口⑥⑥口
③口口③
⑤口⑤口 |③-④⑤|
口④口口 |--⑥-|
65
①口口② |--①-|
④③③⑦ |②-③-|
④⑤⑥⑦ |④-⑤-|
②⑤⑥① |⑥-⑦-|
66
口口口口 |①---|
口②②口 |②---|
口口口口
①口口①

⑤口口⑤
口口口口
口③④口 |③④-⑤|
⑥口口⑥ |--⑥-|
67
⑤⑧⑧⑥ |--①-|
口③④口 |②-③④|
①⑦⑦② |-⑤⑥-|
口①②口 |⑦-⑧-|
68
口口口口 |-①②③|
④⑤⑤④ |④--⑤|
口口口口
①②③口

口口口口
口口口口
口⑥⑥口 |--⑥-|
⑦⑧⑨口 |-⑦⑧⑨|
69
②口口② |①--②|
①③④① |-③④-|
口口口口
口口口口

口口口口
⑪口口⑪
口⑨⑩口 |⑤⑥⑦⑧|
⑤⑥⑦⑧ |⑨⑩⑪-|
70
②口口② |----|
口口口口 |--①-|
①口口① |----|
口口口口 |--②-|
71
④口口④ |--①-|
①口口① |②-③-|
⑤②②⑤ |--④-|
③⑥⑥③ |⑤-⑥-|
72
⑧⑦⑦⑧ |--①②|
③④⑤⑥ |③④⑤⑥|
⑧①②⑧ |⑦---|
口口口口 |--⑧-|
73
口口口口 |----|
口①口① |----|
口口①口 |----|
口①口口 |--①-|

不確定度: 1

最終更新:2017年03月17日 01:36