旅の終わりと祝祭の夜
月船古書堂

EXTREME

Level: 10
BPM: 148
Notes: 778

1
口口口口 |----|
口口口口 |----|
口口口口 |----|
口口口口 |----|
2
口口口口 |①---|
口①①口 |----|
口口口口 |----|
口口口口 |----|
3
口口口口 |----|
口口口口 |----|
口口口口 |----|
口口口口 |----|
4
口口口口 |----|
口口口口 |----|
口口口口 |----|
口口口口 |----|
5
口口口口 |----|
口口口口 |----|
口口口口 |----|
口口口口 |----|
6
口口口口 |①---②-|
口口口① |③---④-|
口口口④
口口③②

口口口口
⑦口⑧口
⑥口⑨口 |⑤-⑥-⑦-|
⑤口⑩口 |⑧-⑨-⑩-|
7
③④⑤② |①---②-|
口①口口 |③-④-⑤-|
口口口口
口口口口

口口口口
⑩⑪口口
⑧⑦⑥口 |⑥-⑦-⑧-|
口⑨口口 |⑨-⑩-⑪-|
8
⑤口口⑨ |①---②-|
⑥⑧口① |③---④-|
⑦④口口 |⑤-⑥-⑦-|
口口③② |⑧---⑨-|
9
口口口口 |①---②-|
口口②① |③---④-|
口④③口
口口口口

口口口口
口⑥⑦口
口口口口 |⑤-----|
口⑤口口 |--⑥-⑦-|
10
口口口口 |①---②-|
口口口① |③---④-|
口口口④
口口③②

口口口口
⑦口⑧口
⑥口⑨口 |⑤-⑥-⑦-|
⑤口⑩口 |⑧-⑨-⑩-|
11
③④⑤② |①---②-|
口①口口 |③-④-⑤-|
⑧⑦⑥口 |⑥-⑦-⑧-|
口⑨口口 |⑨-----|
12
⑪②⑩⑫ |①-②③|
⑦⑨③① |④-⑤-⑥-|
⑧⑤⑥④ |⑦-⑧⑨|
口口口口 |⑩-⑪-⑫-|
13
口口口口 |①---②-|
口⑦⑧② |③-④-⑤-|
⑥①口口 |⑥-----|
口④⑤③ |--⑦-⑧-|
14
④口口口 |①---②-|
⑤口口① |③---④⑤|
口口口口
口口③②

口口口口
口口⑩口
⑥⑨⑪⑧ |⑥⑦⑧-⑨-|
⑦口⑫口 |⑩-⑪-⑫-|
15
③④⑤② |①---②-|
口①口口 |③-④-⑤-|
口口口口
口口口口

口口口口
⑩⑪口口
⑧⑦⑥口 |⑥-⑦-⑧-|
口⑨口口 |⑨-⑩-⑪-|
16
⑤口口⑨ |①---②-|
⑥⑧口① |③---④-|
⑦④口口 |⑤-⑥-⑦-|
口口③② |⑧---⑨-|
17
口口口口 |①---②-|
口口②① |③---④-|
口④③口
口口口口

口口口口
口口口⑦
口口口⑥ |⑤-----|
口⑤口口 |--⑥-⑦-|
18
④口口① |①-----|
⑤③②口 |②-③-④⑤|
⑥⑨⑧口 |⑥⑦⑧-⑨-|
⑦⑩⑪⑫ |⑩-⑪-⑫-|
19
④⑤⑥④ |①-②-③-|
口①口③ |④-⑤-⑥-|
⑨⑧⑦② |⑦-⑧-⑨-|
口⑩⑩口 |⑩-----|
20
⑪②⑩⑫ |①-②③|
⑦⑨③① |④-⑤-⑥-|
⑧⑤⑥④ |⑦-⑧⑨|
口口口口 |⑩-⑪-⑫-|
21
口口口口 |①---②③|
口口口② |④-⑤-⑥-|
⑦①口③ |⑦-----|
口⑤⑥④ |------|
22
口口口口 |①-----|
口口口② |--②-③-|
口口③① |④-----|
口④口口 |------|
23
口②口口 |------|
口口口③ |①-----|
①口口口 |②-----|
口口口口 |③-----|
24
口口口口 |①-----|
口口②④ |----②-|
口③⑤口 |③-----|
口口①口 |--④-⑤-|
25
口②口口 |①---②-|
⑧口③口 |--③-④-|
④⑦口口 |⑤-----|
⑥①⑤口 |⑥-⑦-⑧-|
26
②①口口 |①-②-③-|
口③口④ |--④-⑤-|
口口⑤① |⑥-----|
口⑥口口 |------|
27
口②口口 |------|
口口口③ |①-----|
①口口口 |②-----|
口口口口 |③-----|
28
①②⑥⑤ |①---②-|
⑧④③⑦ |--③-④-|
①②⑥⑤ |⑤---⑥-|
口口①口 |--⑦-⑧-|
29
③口④③ |①-②---|
口②②口 |③---④-|
口④口口
口①①口

口⑤口口
口⑥⑥口
口口⑤口 |⑤-----|
口口口口 |⑥-----|
30
口口口② |①---②③|
口口口③ |④⑤⑥---|
⑥口口④
口①①⑤

⑩口⑩口
⑦⑧⑨口
口口口口 |⑦---⑧-|
⑦⑧⑨口 |--⑨-⑩-|
31
口①口② |①---②③|
⑦⑨⑩③ |④⑤⑥---|
⑥⑧口④ |⑦-⑧-⑨-|
⑦⑨⑩⑤ |--⑩---|
32
②①口① |①---②③|
③⑨⑧⑦ |④⑤⑥---|
④口口⑥ |⑦---⑧-|
⑤⑨⑧⑦ |--⑨---|
33
②①口① |①---②③|
③⑪⑩⑧ |④⑤⑥-⑦-|
④⑦⑨⑥ |⑧-⑨-⑩-|
⑤⑪⑩⑧ |--⑪---|
34
①口①② |①---②③|
口口口③ |④⑤⑥---|
⑥口口④
口口口⑤

⑩口⑩口
⑦⑧⑨口
口口口口 |⑦---⑧-|
⑦⑧⑨口 |--⑨-⑩-|
35
口①口② |①---②③|
⑦⑨⑩③ |④⑤⑥---|
⑥⑧口④ |⑦-⑧-⑨-|
⑦⑨⑩⑤ |--⑩---|
36
②①口① |①---②③|
③口口口 |④⑤⑥---|
④口口⑥
⑤口口口

口口口口
口⑪⑨⑦
⑫⑩⑧口 |⑦-⑧-⑨-|
口⑪⑨⑦ |⑩-⑪-⑫-|
37
口口②口 |①-----|
①口③口 |----②③|
口⑦④⑤ |④-----|
①口⑥口 |⑤-⑥-⑦-|
38
口口④① |①-----|
口③②口 |--②-③-|
口口口口 |④-----|
①⑤口口 |⑤-----|
39
口口口口 |①-----|
①口口口 |--②-③-|
口③②口 |④-----|
口口④口 |------|
40
口口口口 |①-----|
口口⑤① |--②-③-|
口②③口 |④-----|
口④口口 |⑤-----|
41
①口口口 |①-----|
口③②口 |------|
口口口口 |------|
口口口口 |--②-③-|
42
口口①口 |①-----|
口口⑤口 |--②-③-|
口③②口 |④-----|
口口④口 |⑤-----|
43
①口口口 |①-----|
④口口口 |--②-③-|
口②③口 |------|
口口口口 |④-----|
44
口口①⑤ |①-----|
口口口⑥ |--②-③-|
口④③口 |④---⑤-|
口②口口 |--⑥---|
45
口口口口 |①-----|
口口口口 |------|
口口口① |------|
口口口口 |------|
46
⑦②⑤① |①-②-③-|
⑦⑥③① |④-⑤-⑥-|
口口口口 |⑦-⑧-⑨-|
⑨④④⑧

口口口⑪ |⑩-⑪-⑫-|
口口⑫⑬ |--⑬---|
口⑩⑬⑫
口口口口
47
①⑤②⑦ |①-②-③-|
①③⑥⑦ |④-⑤-⑥-|
口口口口 |⑦-⑧-⑨-|
⑧④④⑨

⑪口口口 |⑩-⑪-⑫-|
⑬⑫口口 |--⑬---|
⑫⑬⑩口
口口口口
48
⑦②⑤① |①-②-③-|
⑦⑥③① |④-⑤-⑥-|
⑨口口⑧ |⑦-⑧-⑨-|
口④④口

口⑪⑬⑫ |⑩-⑪-⑫-|
口口⑫⑬ |--⑬---|
口口口口
口口口⑩
49
①口口⑦ |①-②-③-|
①③⑥⑦ |④-⑤-⑥-|
⑧⑤②⑨ |⑦-⑧-⑨-|
口④④口

⑫⑬⑪口 |⑩-⑪-⑫-|
⑬⑫口口 |--⑬---|
口口口口
⑩口口口
50
⑦口口① |①-②-③-|
⑦⑥③① |④-⑤-⑥-|
口②⑤④ |⑦-⑧⑨⑩-|
⑩⑨⑧口

口口口⑫ |⑪-⑫-⑬-|
口口⑬⑭ |--⑭---|
⑪口⑭⑬
口口口口
51
①③②⑦ |①-②-③-|
①口⑥⑦ |④-⑤-⑥-|
④⑤口口 |⑦-⑧⑨⑩-|
口⑧⑨⑩

⑫口口口 |⑪-⑫-⑬-|
⑭⑬口口 |--⑭---|
⑬⑭⑪口
口口口口
52
⑧口⑦① |①-②③④-|
⑧口⑤① |⑤-⑥-⑦-|
⑪⑩⑨口 |⑧-⑨⑩⑪-|
⑥②③④

口⑬⑮⑭ |⑫-⑬-⑭-|
口口⑭⑮ |--⑮---|
口口口⑫
口口口口
53
①口口⑧ |①-②③④-|
①⑦口⑧ |⑤-⑥-⑦-|
⑪⑩⑨⑥ |⑧-⑨⑩⑪-|
⑤②③④

口⑬⑫口 |⑫---⑬-|
⑭口口口 |--⑭---|
口口口⑭
口⑫⑬口
54
口口⑧① |①-----|
⑨②⑤⑧ |②③④⑤⑥⑦|
⑨③⑥口 |⑧-----|
①④⑦口 |⑨-----|
55
②口口① |①---②-|
口③⑥口 |③④⑤⑥⑦⑧|
口④⑦口
①⑤⑧口

口⑩⑨⑪
口口口⑨
口口口⑩ |⑨---⑩-|
⑫口口⑬ |⑪-⑫-⑬-|
56
①口口口 |①-②③④-|
口⑤口⑦ |⑤-⑥-⑦-|
②③④⑥
口口口口
57
口口①① |①---②-|
③口口口 |③④⑤---|
④口口口
⑤②口口

⑥口⑧口
口⑨口⑧
口⑦口口 |⑥--⑦⑧-|
口口⑩⑥ |--⑨-⑩-|
58
②④口① |①---②-|
②口口口 |③-④-⑤-|
口口口③
①口口⑤

⑩口⑥⑧
口⑩⑧⑥
口口口口 |⑥-⑦-⑧-|
⑪⑨⑦口 |⑨-⑩-⑪-|
59
口①③口 |①-②-③-|
①口口③ |④⑤⑥⑦--|
⑦⑥⑤④
口口口②

⑭口口⑨
⑪⑫⑬口
口口口口 |⑧-⑨-⑩-|
⑩⑧⑧口 |⑪⑫⑬-⑭-|
60
口③①口 |①---②-|
口口口② |--③---|
③口口①
口口②口

口口口口
④口⑤⑧
口⑥⑥⑦ |④-⑤-⑥-|
口④口口 |--⑦-⑧-|
61
口口①① |①---②-|
③口口口 |③④⑤---|
④口口口
⑤②口口

⑥口⑧口
口⑨口⑧
口⑦口口 |⑥--⑦⑧-|
口口⑩⑥ |--⑨-⑩-|
62
口③口① |①---②-|
口口口⑤ |③-④-⑤-|
④口口口
①口口②

⑩口⑥⑧
口口口口
口⑩⑧⑥ |⑥-⑦-⑧-|
⑪⑨⑦口 |⑨-⑩-⑪-|
63
口①③口 |①-②-③-|
⑦⑥⑤④ |④⑤⑥⑦--|
①口口③
口口口②

口⑨⑪口
口口口口
口口⑩⑫ |⑧---⑨-|
口⑧⑧口 |⑩-⑪-⑫-|
64
①口口② |①---②-|
口⑤④③ |③-④-⑤-|
③④⑤口
②口口①

⑦⑥⑥口
口口口⑧
⑧口口口 |⑥---⑦-|
口⑥⑥⑦ |----⑧-|
65
口⑥口① |①-②-③-|
①②③口 |④-⑤-⑥-|
口④口①
①口⑤口

⑩口⑦口
⑫口口⑪
⑫口口⑪ |⑦-⑧-⑨-|
口⑧口⑨ |⑩-⑪-⑫-|
66
⑥口③⑤ |①-②-③-|
口②口口 |④-⑤-⑥-|
口口①口
④口口口

口口口口
口⑪⑨⑦
口⑫⑩⑧ |⑦-⑧-⑨-|
口⑪⑨⑦ |⑩-⑪-⑫-|
67
④⑥口① |①-②-③-|
口口口⑤ |④-⑤-⑥-|
⑥口口口
②口⑤③

口口⑦⑨
⑩⑫⑪口
口口口口 |⑦-⑧-⑨-|
⑫⑧口⑪ |⑩-⑪-⑫-|
68
口⑥③口 |①-②-③-|
⑥口口③ |④-⑤-⑥-|
口④①口
口⑤②口

⑦口口⑦
口⑩⑧口
⑦⑪⑨⑦ |⑦---⑧-|
⑩口口⑧ |⑨-⑩-⑪-|
69
口⑥口口 |①-②-③-|
②口⑤③ |④-⑤-⑥-|
④口口口
口①①⑤

⑫口口⑪
口⑩口口
口口⑦⑨ |⑦-⑧-⑨-|
⑧口⑨口 |⑩-⑪-⑫-|
70
口⑥③口 |①-②-③-|
口⑦①口 |④-⑤-⑥⑦|
口口口⑤
④②⑤①

⑨口⑫口
口口口⑫
⑪⑧⑩口 |⑧-⑨-⑩-|
口⑪口⑩ |--⑪-⑫-|
71
④③口② |①-②-③-|
③④口口 |④-----|
口口口①
②口①口

口⑧⑥口
口口口口
口口口口 |--⑤-⑥-|
⑦⑨⑨⑤ |⑦-⑧-⑨-|
72
⑤口口⑤ |①-②-③-|
①口口③ |④---⑤-|
⑤②④⑤ |------|
口口口口 |------|

不確定度: 0

最終更新:2017年08月13日 13:14