バビロニアの旅人たち
Babylonian Vates

BASIC

Level: 4
BPM: 175
Notes: 342

1
口口口口 |----|
口口口口 |----|
口口口口 |----|
口口口口
2
口口口口 |①---|
口①②口 |----|
口口口口 |②---|
口口口口
3
②口口② |①---|
口口口口 |----|
口①口口 |②---|
口口口口
4
口口口口 |----|
口口口口 |①---|
口①①口 |----|
口口口口
5
口口口口 |①---|
口口口① |②---|
口口口② |③---|
口口口③
6
口口口口 |①---|
口①②口 |----|
口口口口 |②---|
口口口口
7
②口口② |①---|
口口口口 |----|
口①口口 |②---|
口口口口
8
口口口口 |----|
口口口口 |①---|
口①①口 |----|
口口口口
9
口口口口 |①---|
①口口① |----|
口口口口 |----|
口口口口
10
口口口口 |①---|
口口口口 |②---|
口③②① |③---|
口口口口
11
口③③口 |①---|
口②②口 |②---|
①口口口 |③---|
口口口口
12
②口口② |①---|
口口口口 |----|
口①①口 |②---|
口口口口
13
口口口口 |①---|
口口①口 |②---|
口口②口 |③---|
口口③口
14
口口口口 |①---|
口口口口 |②---|
①②③口 |③---|
口口口口
15
口③③口 |①---|
口②②口 |②---|
口口口① |③---|
口口口口
16
口口口口 |①---|
②口口② |----|
口①①口 |②---|
口口口口
17
口②①口 |①---|
口①②口 |②---|
口口口口 |----|
口口口口
18
口口口口 |①---|
口口口口 |----|
口口①口 |----|
口口口口
19
口口口口 |①---|
口口口口 |----|
口①口口 |----|
口口口口
20
口口口口 |①---|
口口口口 |----|
口口口口 |----|
口口①口
21
口口口口 |①---|
口口口口 |----|
口口口口 |----|
口①口口
22
口口口口 |①---|
口口①口 |----|
口口口口 |----|
口口口口
23
口口口口 |①---|
口①口口 |----|
口口口口 |----|
口口口口
24
口口口口 |①---|
口口口口 |----|
口口①口 |----|
口口口口
25
口口口口 |①---|
口口口口 |----|
口①口口 |----|
口口口口
26
①口口口 |①---|
②口口口 |②---|
③口口口 |③---|
口口口口
27
口口口口 |①---|
口口口口 |②---|
口口口口 |③---|
①②③口
28
口口口口 |①---|
口口口③ |②---|
口口口② |③---|
口口口①
29
口口口① |①---|
口②②口 |②---|
口口口口 |----|
口口口口
30
口①①口 |①---|
口口口口 |----|
口口口口 |----|
口口口口
31
口口口口 |①---|
口口口口 |----|
口①①口 |----|
口口口口
32
口口口口 |①---|
口①①口 |----|
口口口口 |----|
口口口口
33
口口口口 |①---|
口口口口 |----|
口口口口 |----|
口①①口
34
口口口口 |①---|
口口口口 |②---|
口③②① |③---|
口口口口
35
口③③口 |①---|
口②②口 |②---|
①口口口 |③---|
口口口口
36
②口口② |①---|
口口口口 |----|
口①①口 |②---|
口口口口
37
口口口口 |①---|
口口①口 |②---|
口口②口 |③---|
口口③口
38
口口口口 |①---|
口口口口 |②---|
①②③口 |③---|
口口口口
39
口③③口 |①---|
口②②口 |②---|
口口口① |③---|
口口口口
40
口口口口 |①---|
②口口② |----|
口①①口 |②---|
口口口口
41
口口口② |①---|
口①①口 |----|
口口口口 |②---|
口口口口
42
口口口口 |①---|
口口口① |②---|
口口口② |③---|
口口口③
43
②口口口 |①---|
口口口口 |----|
口①①口 |②---|
口口口口
44
口口口口 |①---|
①口口口 |②---|
②口口口 |③---|
③口口口
45
口口口③ |①---|
口②②口 |②---|
口①①口 |③---|
口口口口
46
口口口口 |①---|
口口口① |②---|
口口口② |③---|
口口口③
47
口③③口 |①---|
口②②口 |②---|
口①①口 |③---|
口口口口
48
①口口① |①---|
口口口口 |----|
口口口口 |----|
口口口口
49
口口口③ |①---|
口①②口 |②---|
口②①口 |③---|
口口口口
50
口口口口 |①---|
口口口① |②---|
口口口② |③---|
口口口③
51
③口口口 |①---|
口②②口 |②---|
口①①口 |③---|
口口口口
52
口口口口 |①---|
①口口口 |②---|
②口口口 |③---|
③口口口
53
口口口③ |①---|
口②②口 |②---|
口①①口 |③---|
口口口口
54
口口口口 |①---|
口口口① |②---|
口口口② |③---|
口口口③
55
口③③口 |①---|
口②②口 |②---|
口①①口 |③---|
口口口口
56
①口口① |①---|
口口②口 |----|
口②口口 |②---|
口口口口
57
口口口口 |①---|
口①口口 |----|
口口①口 |----|
口口口口
58
口口口口 |①---|
口口①① |----|
口口口口 |----|
口口口口
59
口口口口 |①---|
口口口口 |----|
口口①① |----|
口口口口
60
口口口口 |①---|
①①口口 |----|
口口口口 |----|
口口口口
61
口口口口 |①---|
口口口口 |----|
①①口口 |----|
口口口口
62
口口口口 |①---|
口口口口 |----|
口口①① |----|
口口口口
63
口口口口 |①---|
口口①① |----|
口口口口 |----|
口口口口
64
口口口口 |①---|
口口口口 |----|
①①口口 |----|
口口口口
65
口口口② |①---|
①①口口 |----|
口口口口 |②---|
口口口口
66
口口口口 |①---|
口口口① |②---|
口口口② |③---|
口口口③
67
③口口口 |①---|
口②②口 |②---|
口①①口 |③---|
口口口口
68
口口口口 |①---|
①口口口 |②---|
②口口口 |③---|
③口口口
69
口口口③ |①---|
口②②口 |②---|
口①①口 |③---|
口口口口
70
口口口口 |①---|
口口口① |②---|
口口口② |③---|
口口口③
71
口③③口 |①---|
口②②口 |②---|
口①①口 |③---|
口口口口
72
①口口① |①---|
口口②口 |----|
口②口口 |②---|
口口口口
73
②②②② |①---|
口①口口 |②---|
口口①口 |----|
口口口口
74
口口口口 |①---|
口口①口 |----|
口口口口 |----|
口口口口
75
口口口口 |①---|
口口口口 |②---|
口①②③ |③---|
口口口口
76
口口口口 |①---|
口①口口 |----|
口口口口 |----|
口口口口
77
口口口口 |①---|
口口口口 |②---|
③②①口 |③---|
口口口口
78
口口口口 |①---|
口口①口 |----|
口口口口 |----|
口口口口
79
口口口口 |①---|
口口口口 |②---|
口①②③ |③---|
口口口口
80
口口口口 |①---|
口①口口 |----|
口口口口 |----|
口口口口
81
口口口口 |①---|
口口口口 |②---|
③②①口 |③---|
口口口口
82
口口口口 |①---|
口①①口 |----|
口口口口 |----|
口口口口
83
口口口口 |①---|
口口口口 |②---|
口①②③ |③---|
口口口口
84
口口口口 |①---|
口①①口 |----|
口口口口 |----|
口口口口
85
口口口口 |①---|
口口口口 |②---|
③②①口 |③---|
口口口口
86
口口口口 |①---|
口①①口 |----|
口口口口 |----|
口口口口
87
口口口口 |①---|
口口口口 |----|
口①①口 |----|
口口口口
88
口口口口 |①---|
口口口口 |----|
口口口口 |----|
口①①口
89
口口口② |①---|
口口口口 |----|
①口口① |②---|
口口口口
90
口口口口 |①---|
口口口① |②---|
口口口② |③---|
口口口③
91
③口口口 |①---|
口②②口 |②---|
口①①口 |③---|
口口口口
92
口口口口 |①---|
①口口口 |②---|
②口口口 |③---|
③口口口
93
口口口③ |①---|
口②②口 |②---|
口①①口 |③---|
口口口口
94
口口口口 |①---|
口口口① |②---|
口口口② |③---|
口口口③
95
口③③口 |①---|
口②②口 |②---|
口①①口 |③---|
口口口口
96
①口口① |①---|
口口口口 |----|
口口口口 |----|
口口口口
97
口口口口 |①---|
口②①口 |②---|
口①②口 |----|
口口口口
98
口①口口 |①---|
口口②口 |②---|
口③口口 |③---|
口口口口
99
口口口口 |①---|
口口口口 |----|
口口口口 |----|
口口①口
100
口口①口 |①---|
口②口口 |②---|
口口③口 |③---|
口口口口
101
口口口口 |①---|
口口口口 |----|
口口口口 |----|
口①口口
102
口①口口 |①---|
口口②口 |②---|
口③口口 |③---|
口口口口
103
口口口口 |①---|
口口口口 |----|
口口口口 |----|
口口①口
104
口口①口 |①---|
口②口口 |②---|
口口③口 |③---|
口口口口
105
口②②口 |①---|
口口口口 |②---|
口口口口 |----|
口①口口
106
口口口口 |①---|
口口口口 |----|
口①①口 |----|
口口口口
107
口口口口 |①---|
口①①口 |----|
口口口口 |----|
口口口口
108
口①①口 |①---|
口口口口 |----|
口口口口 |----|
口口口口
109
口口口口 |①---|
口口口口 |----|
口①①口 |----|
口口口口
110
口口口口 |①---|
口①①口 |----|
口口口口 |----|
口口口口
111
口①①口 |①---|
口口口口 |----|
口口口口 |----|
口口口口
112
口口口口 |①---|
口口口口 |----|
口口口口 |----|
口①①口
113
口口口口 |①---|
①①①① |----|
口口口口 |----|
口口口口
114
口口口口 |----|
口口口口 |----|
口口口口 |----|
口口口口
115
口口口口 |①---|
口①②口 |----|
口口口口 |②---|
口口口口
116
口口口口 |①---|
口②口口 |----|
口①口口 |②---|
口口口口
117
口口口口 |①---|
口口口口 |----|
口口①口 |----|
口口口口
118
口口口口 |①---|
口口口① |②---|
口口口② |③---|
口口口③
119
口口口口 |①---|
口①②口 |----|
口口口口 |②---|
口口口口
120
口口口口 |①---|
口②口口 |----|
口①口口 |②---|
口口口口
121
口口口口 |①---|
口口口口 |----|
口口①口 |②---|
口②②口
122
①①①① |①---|
口口口口 |----|
口口口口 |----|
口口口口

不確定度: 0

最終更新:2017年08月13日 13:14