バビロニアの旅人たち
Babylonian Vates

ADVANCED

Level: 7
BPM: 175
Notes: 587

1
口口口口 |----|
口口口口 |----|
口口口口 |----|
口口口口
2
口口口口 |①-②-|
口⑥⑤口 |③-④-|
口④③口 |⑤-⑥-|
口②①口
3
①②②① |①---|
口口口口 |②---|
口③③口 |③---|
口口口口
4
口口③口 |①---|
①④口① |②---|
口口口口 |③-④-|
口②②口
5
③口口② |①---|
口口口口 |②---|
口口①口 |③---|
口口口口
6
口口口口 |①-②-|
口⑥⑤口 |③-④-|
口④③口 |⑤-⑥-|
口②①口
7
①②②① |①---|
口口口口 |②---|
口口口口 |③---|
口③③口
8
口口口口 |①---|
①③②① |②-③-|
口⑤④口 |④-⑤-|
口口口口
9
口口口口 |①-②-|
口口口口 |③---|
③口口③ |----|
口②①口
10
④口口口 |①-②-|
⑤③口口 |③-④-|
⑥口②口 |⑤-⑥-|
口口口①
11
口②②口 |①---|
口口口口 |②---|
口口④口 |③-④-|
①③口口
12
④⑤③② |①---|
口①口口 |②-③-|
口口口口 |④-⑤-|
口口口口
13
口口口口 |①---|
口②①口 |②---|
口①②口 |③---|
口③③口
14
口口口④ |①-②-|
口口③⑤ |③-④-|
口②口⑥ |⑤-⑥-|
①口口口
15
口②②口 |①---|
口口口口 |②---|
口④口口 |③-④-|
口口③①
16
②③⑤④ |①---|
口口①口 |②-③-|
口口口口 |④-⑤-|
口口口口
17
③口口口 |①---|
口①②口 |②---|
口②①口 |③---|
口口口口
18
口口口① |①---|
口②口口 |----|
口口口口 |②---|
口口口口
19
口口口口 |①---|
口口②口 |----|
口口口口 |②---|
口口①口
20
口口口口 |①---|
口②口口 |②---|
口口口口 |③---|
口①③口
21
口口口③ |①---|
①口口① |②---|
口②②口 |③---|
口口口口
22
①口口口 |①---|
口口②口 |----|
口口口口 |②---|
口口口口
23
口口口口 |①---|
口②口口 |----|
口口口口 |②---|
口①口口
24
口口口口 |①---|
口口②口 |②---|
口口口口 |③---|
口③①口
25
口口口口 |①---|
①口口① |②---|
口②②口 |----|
口口口口
26
口口口口 |①---|
口口口③ |②---|
②口口① |③---|
口口口口
27
③口口② |①---|
①口口口 |②---|
口口口口 |③---|
口口口口
28
口口口口 |①---|
口①①口 |②---|
口②②口 |③---|
口③③口
29
口口③口 |①---|
②口口② |②---|
①口口① |③---|
口口口口
30
口②口口 |①---|
口口口口 |----|
口①口口 |②---|
口口口口
31
口口口口 |①---|
口口②口 |----|
口口①口 |②---|
口口口口
32
口口口口 |①---|
口②口口 |②---|
口口口口 |③---|
口①③口
33
口口口口 |①---|
①口口① |----|
口口口口 |----|
口口口口
34
④口口口 |①-②-|
⑤③口口 |③-④-|
⑥口②口 |⑤-⑥-|
口口口①
35
口②②口 |①---|
口口口口 |②---|
口口④口 |③-④-|
①③口口
36
④⑤③② |①---|
口①口口 |②-③-|
口口口口 |④-⑤-|
口口口口
37
口口口口 |①---|
口②①口 |②---|
口①②口 |③---|
口③③口
38
口口口④ |①-②-|
口口③⑤ |③-④-|
口②口⑥ |⑤-⑥-|
①口口口
39
口②②口 |①---|
口口口口 |②---|
口④口口 |③-④-|
口口③①
40
②③⑤④ |①---|
口口①口 |②-③-|
口口口口 |④-⑤-|
口口口口
41
口口口口 |①---|
口口口口 |----|
口口口口 |②-③-|
③①①②
42
②口③① |①---|
口②①③ |②---|
口口口口 |③---|
口口口口
43
口①口口 |①---|
①口口口 |----|
口口口口 |②-③-|
口③②口
44
③②①③ |①---|
②口口① |②---|
口口口口 |③---|
口口口口
45
口口口口 |①---|
口口口口 |②---|
④①①③ |③-④-|
口②②口
46
②口③① |①---|
口②①③ |②---|
口口口口 |③---|
口口口口
47
口①口口 |①---|
①口口口 |②---|
口②②口 |③---|
口③③口
48
①③③① |①---|
口口口口 |②---|
口口口口 |③---|
②口口②
49
口口口口 |①---|
②口口② |②---|
②①①② |③-④-|
口④③口
50
②口③① |①---|
口②①③ |②---|
口口口口 |③---|
口口口口
51
口①口口 |①---|
①口口口 |②---|
口口口口 |③-④-|
②④③②
52
③②①③ |①---|
②口口① |②---|
口口口口 |③---|
口口口口
53
口口口口 |①---|
口口口口 |②---|
④①①③ |③-④-|
口②②口
54
②口③① |①---|
口②①③ |②---|
口口口口 |③---|
口口口口
55
口①口口 |①---|
①口口口 |②---|
口②②口 |③---|
口③③口
56
①口口① |①---|
口口②口 |----|
口②口口 |②---|
口口口口
57
口口口口 |①---|
口①口口 |----|
③口①口 |②-③-|
口口②口
58
口口口口 |①---|
口②①口 |--②-|
口口口③ |③-④-|
口④口口
59
口口口口 |①-②-|
⑤口③口 |③---|
②口④口 |④-⑤-|
口口①口
60
口②①口 |①---|
口口口③ |--②-|
口④口口 |③-④-|
口口口口
61
口口③口 |①-②-|
②口口口 |③---|
口口①口 |④---|
口④④口
62
①口④① |①---|
③口口口 |--②-|
口口②口 |③-④-|
口口口口
63
④①口④ |①-②-|
口口口② |③---|
口③口口 |④---|
口口口口
64
口口口口 |①---|
②①①② |②---|
口口口口 |③---|
口③③口
65
①口口① |①---|
口口口口 |----|
①口口① |②-③-|
③口口②
66
口②①口 |①---|
②口口① |②---|
口③③口 |③---|
口口口口
67
②口口① |①---|
口口口口 |②---|
口口口口 |③-④-|
①④③②
68
③②①③ |①---|
②口口① |②---|
口口口口 |③---|
口口口口
69
口口口口 |①---|
口口口口 |②---|
④①①③ |③-④-|
口②②口
70
②口③① |①---|
口②①③ |②---|
口口口口 |③---|
口口口口
71
口①口口 |①---|
①口口口 |②---|
口②②口 |③---|
口③③口
72
口口口口 |①---|
口①①口 |----|
口②②口 |②---|
口口口口
73
①口口① |①---|
口②②口 |②---|
①口口① |----|
口口口口
74
口口口口 |①---|
口口③口 |②---|
口②口口 |③---|
口口①口
75
口口口口 |①---|
口①口口 |②---|
口口②口 |③---|
口③口口
76
口口口③ |①---|
口②口口 |②---|
口口口① |③---|
口口口口
77
口①口口 |①---|
口口口② |②---|
口③口口 |③---|
口口口口
78
口口①口 |①---|
②口口口 |②---|
口口③口 |③---|
口口口口
79
①口口口 |①---|
口口②口 |②---|
③口口口 |③---|
口口口口
80
口口口口 |①---|
口②③口 |②---|
口③②① |③---|
口口①口
81
口①口口 |①---|
①口口口 |②---|
③口口③ |③---|
口②②口
82
口口③口 |①---|
口②口口 |②---|
口口①口 |③---|
口口口口
83
口①口口 |①---|
口口②口 |②---|
口③口口 |③---|
口口口口
84
口口①口 |①---|
②口口口 |②---|
口口③口 |③---|
口口口口
85
口①口口 |①---|
口口口② |②---|
口③口口 |③---|
口口口口
86
①口口① |①---|
口②②口 |--②-|
口口口口 |----|
口口口口
87
口口口口 |①---|
口口口口 |--②-|
①口口① |----|
口②②口
88
口口口口 |①-②-|
口②①口 |③-④-|
口④③口 |⑤-⑥-|
口⑥⑤口
89
①口口① |①---|
口口口口 |----|
口口口口 |②-③-|
③口口②
90
口②①口 |①---|
口③③口 |②---|
②口口① |③---|
口口口口
91
②口口① |①---|
口口口口 |②---|
口口口口 |③-④-|
①④③②
92
口②①口 |①---|
口口口口 |②---|
②③③① |③---|
口口口口
93
口口口口 |①---|
①口口① |②---|
口口口口 |③-④-|
②④③②
94
②口③① |①---|
口口口口 |②---|
口②①③ |③---|
口口口口
95
口①口口 |①---|
口②②口 |②---|
①口口口 |③---|
口③③口
96
①口口① |①---|
口口口口 |②-③-|
④⑤③② |④-⑤-|
口口口口
97
②口口② |①---|
④口口口 |②---|
口口口③ |③-④-|
口①①口
98
口⑥①口 |①②③④|
口⑦②口 |⑤---|
⑤⑧③口 |⑥⑦⑧⑨|
口⑨④口
99
④口口② |①---|
口口口③ |②---|
口口口① |③-④-|
口口口口
100
口口①⑥ |①②③④|
口⑦②口 |⑤-⑥-|
⑤口③⑧ |⑦-⑧-|
口口④口
101
口③口④ |①-②-|
⑤口口② |③---|
口①口口 |④-⑤-|
口口口口
102
口⑥①口 |①②③④|
口⑦②口 |⑤---|
⑤⑧③口 |⑥⑦⑧⑨|
口⑨④口
103
口口口② |①---|
④口口口 |②---|
口口③① |③-④-|
口口口口
104
口②①口 |①---|
口口口③ |②-③-|
口④⑤口 |④-⑤-|
口口口口
105
口口②口 |①-②-|
①③③口 |③---|
口口口口 |④---|
口④④口
106
①口口① |①---|
口口口口 |②---|
口③②口 |③---|
口口口口
107
口口口口 |①---|
②口口① |②---|
口口口口 |③---|
口口口③
108
口口口口 |①---|
口口口口 |----|
口口口口 |----|
①口口口
109
口口口口 |①---|
口口口口 |----|
口①①口 |②---|
口②②口
110
①口口① |①---|
口口口口 |②---|
口③②口 |③---|
口口口口
111
②口口② |①---|
口①①口 |②---|
口口口口 |----|
口口口口
112
口口口口 |①---|
口口口口 |----|
口口口口 |----|
①①①①
113
①①①① |①---|
口口口口 |----|
口口口口 |----|
口口口口
114
口口口口 |----|
口口口口 |----|
口口口口 |----|
口口口口
115
口口口口 |①-②-|
口②①口 |③-④-|
口④③口 |⑤-⑥-|
口⑥⑤口
116
①口口① |①---|
④口口③ |②---|
口口口口 |③-④-|
②口口②
117
口口口口 |①---|
口⑤④口 |②-③-|
口③②口 |④-⑤-|
口①①口
118
①口口① |①---|
②口口② |②---|
口口口口 |③---|
③口口③
119
口口口口 |①-②-|
口②①口 |③-④-|
口④③口 |⑤-⑥-|
口⑥⑤口
120
①口口① |①---|
④口口③ |②---|
口口口口 |③-④-|
②口口②
121
口口口口 |①---|
口③②口 |②-③-|
口⑤④口 |④-⑤-|
口①①口
122
①①①① |①---|
口口口口 |----|
口口口口 |----|
口口口口

不確定度: 0

最終更新:2017年08月13日 13:14