バビロニアの旅人たち
Babylonian Vates

EXTREME

Level: 9
BPM: 175
Notes: 751

1
口口口口 |----|
口口口口 |----|
口口口口 |----|
口口口口
2
口口口④ |①-②-|
②口⑥口 |③-④-|
⑤口口① |⑤-⑥-|
③⑤口口
3
口口③口 |①---|
③①口口 |②---|
口口口口 |③---|
口口口②
4
②①口③ |①---|
口口②④ |②---|
口口口口 |③-④-|
口口口口
5
口口②口 |①---|
口口口口 |②---|
口口口① |③---|
口③口口
6
④口口口 |①-②-|
口⑥口② |③-④-|
①口口⑤ |⑤-⑥-|
口口⑤③
7
口③口口 |①---|
口口①③ |②---|
口口口口 |③---|
②口口口
8
口口①② |①---|
口②③口 |②-③-|
口口口④ |④-⑤-|
口口⑤口
9
③③口口 |①-②-|
①口口口 |③---|
口口④口 |④---|
口②口①
10
⑤口③④ |①-②-|
口⑤口口 |③-④-|
①②口口 |⑤--⑥⑦⑧|
口⑧⑦⑥
11
口②口③ |①---|
②口口④ |②---|
口口口口 |③-④-|
①口口口
12
口口④口 |①---|
③口口口 |②-③-|
口⑤口① |④-⑤-|
口口②口
13
①口口② |①---|
口口口口 |②---|
口口口口 |③---|
②③③①
14
⑤口③④ |①-②-|
口⑤口口 |③-④-|
①②口口 |⑤--⑥⑦⑧|
口⑧⑦⑥
15
口②口口 |①---|
②口口③ |②---|
口口口④ |③-④-|
①口口口
16
口口口口 |①---|
口⑤④口 |②-③-|
口口口口 |④-⑤-|
②③口①
17
②①口口 |①---|
口口口③ |②---|
①②口口 |③---|
口口口口
18
口口口口 |①---|
口③②口 |----|
口口口口 |②-③-|
口①①口
19
口口①口 |①---|
口口口口 |----|
②口口口 |②---|
口口口口
20
口口④口 |①---|
口③②口 |②-③-|
口口口口 |④---|
口①①口
21
④口口④ |①-②-|
口口口口 |③---|
口①②口 |④---|
口③口口
22
口口口口 |①---|
口③②口 |----|
口口口口 |②-③-|
①口口①
23
口口①口 |①---|
口口口口 |----|
②口口② |②---|
口口口口
24
①⑤口① |①---|
口口④口 |②-③-|
口③口口 |④-⑤-|
口口②口
25
口口①口 |①-②-|
口②口口 |③---|
口口③口 |----|
口口口口
26
①口口① |①---|
④口口口 |②---|
口口③口 |③-④-|
口②②口
27
口口①口 |①---|
口②②④ |②---|
口③口口 |③-④-|
口口口口
28
口①口口 |①---|
口口口口 |②---|
③口口③ |③---|
口②②口
29
口④④口 |①-②-|
口口口① |③---|
口②口口 |④---|
口口口③
30
口口口口 |①-②-|
口①口口 |③---|
⑤口口② |④-⑤-|
口③④口
31
口口口口 |①---|
口②①口 |----|
口口③口 |②-③-|
口口口口
32
口口②口 |①---|
口口③口 |②---|
②③口口 |③---|
口口口①
33
口口口口 |①---|
口口口口 |----|
口口①口 |----|
口口口口
34
口口⑤④ |①-②-|
口③口⑤ |③-④-|
①口②① |⑤--⑥⑦⑧|
口⑧⑦⑥
35
口②口③ |①---|
②口口④ |②---|
口口口口 |③-④-|
①口口口
36
口口④口 |①---|
③口口口 |②-③-|
口①口① |④-⑤-|
口⑤②口
37
①口口② |①---|
口口③口 |②---|
口③口口 |③---|
②口口①
38
口口⑤④ |①-②-|
口③口⑤ |③-④-|
①口②① |⑤--⑥⑦⑧|
口⑧⑦⑥
39
②口口③ |①---|
②口口④ |②---|
口口口口 |③-④-|
①口口口
40
口口口口 |①---|
③口④口 |②-③-|
口①口① |④-⑤-|
口⑤②口
41
口③②① |①②③-|
口口口⑤ |----|
口口口口 |④-⑤-|
④口口口
42
①口口② |①---|
口口口口 |②---|
①口口② |③---|
口③③口
43
口②口口 |①---|
①口③① |②---|
口口口口 |③-④-|
口④口口
44
①口①④ |①---|
③⑤口口 |②-③-|
口口⑤② |④-⑤-|
④口口口
45
③①口口 |①-②-|
⑤口口口 |③---|
口②口口 |④-⑤-|
口④③①
46
④⑤口① |①---|
口④口口 |②-③-|
口口②① |④-⑤-|
口口③②
47
口口③口 |①-②-|
口口②③ |③-④-|
①④口⑤ |⑤-⑥-|
口①⑤⑥
48
①④口① |①---|
④口②口 |②-③-|
口口口口 |④---|
口③口口
49
口口①② |①---|
口③口④ |②---|
口口②① |③-④-|
口口口口
50
①口②④ |①---|
③⑤口口 |②-③-|
①口⑤③ |④-⑤-|
④②口口
51
③①口口 |①-②-|
⑥口口口 |③-④-|
④②口口 |⑤-⑥-|
口⑤③①
52
④口口① |①---|
口②⑤② |②-③-|
口⑤口① |④-⑤-|
口口③④
53
口口①③ |①-②-|
口口口⑥ |③-④-|
口口②④ |⑤-⑥-|
①③⑤口
54
①口⑤④ |①---|
口口④口 |②-③-|
①②口口 |④-⑤-|
②③口口
55
口③口口 |①-②-|
③②口口 |③-④-|
⑤口④① |⑤-⑥-|
⑥⑤①口
56
①口口① |①---|
④②②③ |②---|
口口口口 |③-④-|
口口口口
57
②口口③ |①-②-|
口口④口 |③---|
②⑤口③ |④-⑤-|
口①①口
58
口③口口 |①---|
⑦⑥⑤④ |②-③-|
口口口口 |④⑤⑥⑦--|
①口②口
59
口口口口 |①-②-|
口口⑤口 |③---|
口①②④ |④-⑤-|
口③口口
60
口①口口 |①---|
口②口口 |----②③|
口③⑤口 |④-⑤-|
口④口口
61
③②①口 |①-②-|
口口口口 |③---|
口口口口 |④---|
口口④口
62
口口口① |①---|
口②①口 |----②③|
口③⑤口 |④-⑤-|
口④口口
63
口①口口 |①-②-|
口口②口 |③---|
④口口③ |④---|
④口口口
64
⑤口⑤① |①---②③|
口②口① |④---|
口③口口 |⑤---|
口④口口
65
口口口口 |①---|
口②③③ |--②-|
③③②口 |③---|
①口①口
66
①口口④ |①---|
③⑤口口 |②-③-|
口口⑤② |④-⑤-|
④口口①
67
③①口口 |①-②-|
⑥口口口 |③-④-|
④②口口 |⑤-⑥-|
口③①⑤
68
口③口① |①---|
口④口③ |②-③-|
口②⑤① |④⑤⑥-|
②口口⑥
69
口口①③ |①-②-|
口口②⑥ |③-④-|
口口口④ |⑤-⑥-|
⑤①③口
70
①②口口 |①---|
②③口口 |②-③-|
①⑤口④ |④-⑤-|
口口④口
71
口⑤①口 |①-②-|
⑤⑥②① |③-④-|
③口④口 |⑤-⑥-|
口③口口
72
口口口口 |①---|
③口口② |----|
口口口口 |②-③-|
①口口①
73
口口②① |①---|
口口口口 |②---|
口口①② |③---|
口③③口
74
口②口口 |①---|
口口①口 |②---|
口③口口 |③---|
口口口口
75
口口口口 |①-②-|
②口口① |③-④-|
④口口③ |⑤-⑥-|
⑥口口⑤
76
口②口口 |①---|
口口①口 |②---|
口③口口 |③---|
口口口口
77
口口口口 |①-②-|
②口口① |③-④-|
④口口③ |⑤-⑥-|
⑥口口⑤
78
口②①口 |①-②-|
口④③口 |③-④-|
口⑥⑤口 |⑤-⑥-|
口口口口
79
口口口口 |①-②-|
②口口① |③-④-|
④口口③ |⑤-⑥-|
⑥口口⑤
80
④⑦口③ |①-②-③-|
口⑤②口 |④-⑤-⑥-|
⑨①⑥⑧ |⑦-⑧-⑨-|
口口口口
81
⑤口①③ |①-②-|
口⑤③① |③-④-|
口口口口 |⑤-⑥-|
⑥④②口
82
口①口口 |①-②-|
①口⑥口 |③-④-|
口②③口 |⑤-⑥-|
口⑤④口
83
口口口口 |①-②-|
④口口① |③-④-|
②口口⑤ |⑤-⑥-|
⑥口口③
84
口口口口 |①-②-|
口④①口 |③-④-|
口②⑤口 |⑤-⑥-|
口⑥③口
85
口③②① |①②③-|
口⑦④口 |④-⑤-|
口⑤口口 |⑥-⑦-|
口口⑥口
86
①口③② |①-②③|
口口⑥⑤ |--④-|
④口口口 |⑤⑥--|
口口口口
87
口口⑥⑤ |①②③-|
口口口口 |--④-|
口①②③ |⑤⑥--|
口④口口
88
①口口口 |①-②-|
⑥口②口 |③-④-|
③口口⑤ |⑤-⑥-|
口口④口
89
口①①口 |①---|
口口口② |----|
口口口口 |②-③-|
口②口③
90
①口②④ |①---|
③⑤口口 |②-③-|
①口⑤② |④-⑤-|
④口口口
91
②①口口 |①---|
④口③口 |②---|
口口口口 |③-④-|
口②①口
92
④②口① |①---|
口口⑤② |②-③-|
口⑤口① |④-⑤-|
③口口④
93
口口①③ |①-②-|
口口口⑤ |③---|
口口②口 |④-⑤-|
④①③口
94
①③口口 |①---|
③⑤②口 |②-③-|
①口口② |④-⑤-|
口④④口
95
③⑤①④ |①-②-|
⑤口口① |③-④-|
口②②口 |⑤-⑥-|
④⑥⑥③
96
⑤口②口 |①---|
口①①② |②-③-|
口④口口 |④-⑤-|
④口口③
97
口口口口 |①---|
④口口口 |②---|
②口口② |③-④-|
口①①③
98
口⑥①口 |①②③④|
口②⑦⑤ |⑤---|
口⑧③口 |⑥⑦⑧⑨|
口④⑨口
99
②口口② |①---|
④口口口 |②---|
①口口① |③-④-|
口口口③
100
口口①⑥ |①②③④|
口②口⑤ |⑤-⑥-|
口口③⑦ |⑦-⑧-|
口④⑧口
101
③②口口 |①-②-|
①口①口 |③---|
②③口⑤ |④-⑤-|
④口口口
102
口⑥①口 |①②③④|
口②⑦⑤ |⑤---|
口⑧③口 |⑥⑦⑧⑨|
口④⑨口
103
②口口② |①---|
口④口③ |②---|
①口④① |③-④-|
口③口口
104
③①④口 |①---|
①口口口 |②-③-|
口口口口 |④-⑤-|
口⑤口②
105
口③口③ |①-②-|
口口②④ |③---|
④口①口 |④---|
口口口口
106
②口①③ |①---|
口口口口 |②---|
口口口口 |③---|
③①口②
107
口②口口 |①---|
②①口口 |②---|
口口①③ |③---|
口口③口
108
口口①口 |①---|
口口口① |----|
口口口口 |----|
口口口口
109
口口口口 |①---|
口②②口 |----|
①③③口 |②-③-|
口①口口
110
①口②① |①---|
③口口口 |②---|
口口口② |③---|
口③口口
111
②口口② |①---|
口③③口 |②---|
口①①口 |--③-|
口口口口
112
口口口口 |①---|
口口口口 |----|
口口口口 |----|
①①①①
113
①口口① |①---|
①口口① |----|
口口口口 |----|
口口口口
114
口口口口 |----|
口口口口 |----|
口口口口 |----|
口口口口
115
口⑤口口 |①-②-|
口⑥口口 |③-④-|
④口②口 |⑤-⑥-|
口③口①
116
口口口口 |①---|
②口②口 |②---|
口①口口 |③-④-|
口④③口
117
⑤口③口 |①---|
口④口② |②-③-|
口口①口 |④-⑤-|
口口口口
118
口口口口 |①---|
②口口③ |②---|
②口口③ |③---|
口①①口
119
口⑤口口 |①-②-|
口⑥口口 |③-④-|
④口②口 |⑤-⑥-|
口③口①
120
口④③口 |①---|
②口②口 |②---|
口①口口 |③-④-|
口③④口
121
①口口② |①---|
口⑤④③ |②-③-|
③④⑤口 |④-⑤-|
②口口①
122
口①①口 |①---|
口口口口 |----|
口口口口 |----|
口①①口

不確定度: 0

最終更新:2017年08月13日 13:13