バビロニア
劇団レコード

BASIC

Level: 4
BPM: 164
Notes: 308

1
口口口口 |----|
口口口口 |----|
口口口口 |----|
口口口口
2
口口口口 |----|
口口口口 |----|
口口口口 |----|
口口口口
3
口口口口 |①---|
口口口口 |②---|
③②①口 |③---|
口口口口
4
口口口口 |①---|
口口①口 |----|
口口口口 |②---|
口②口口
5
口口口口 |①---|
口口口口 |②---|
③②①口 |③---|
口口口口
6
口口口口 |①---|
口口①口 |----|
口口口口 |②---|
口②口口
7
口口口口 |①---|
口口口口 |②---|
③②①口 |③---|
口口口口
8
口口口口 |①---|
口口①口 |----|
口口口口 |②---|
口②口口
9
③②①口 |①---|
口口口口 |②---|
口口口口 |③---|
口口口口
10
口口口口 |①---|
口①②③ |②---|
口口口口 |③---|
口口口口
11
口口口口 |①---|
口口口口 |②---|
③②①口 |③---|
口口口口
12
口口口口 |①---|
口口①① |----|
口口口口 |②---|
口②口口
13
口口口口 |①---|
口口口口 |②---|
③②①口 |③---|
口口口口
14
口口口口 |①---|
口口①① |----|
口口口口 |②---|
口②口口
15
口口口口 |①---|
口口口口 |②---|
③②①口 |③---|
口口口口
16
口口口口 |①---|
口口①① |----|
口口口口 |②---|
口②口口
17
③②①口 |①---|
口口口口 |②---|
口口口口 |③---|
口口口口
18
口口口口 |①---|
口①②③ |②---|
口口口口 |③---|
口口口口
19
口口口口 |①---|
口①口口 |②---|
口②口口 |③---|
口③口口
20
口口口口 |①---|
口口口口 |----|
口②①口 |②---|
口口口口
21
口口口口 |①---|
口口口口 |----|
口口口口 |----|
口口①口
22
口口③口 |①---|
口口②口 |②---|
口口①口 |③---|
口口口口
23
口口口口 |①---|
口①口口 |②---|
口②口口 |③---|
口③口口
24
口口口口 |①---|
口口口口 |----|
口②①口 |②---|
口口口口
25
口口口口 |①---|
③②①口 |②---|
口口口口 |③---|
口口口口
26
口口口口 |①---|
口口口口 |②---|
口①②③ |③---|
口口口口
27
口口口口 |①---|
口①口口 |②---|
口②口口 |③---|
口③口口
28
口口口口 |①---|
口口口口 |----|
口②①口 |②---|
口口口口
29
口口口口 |①---|
口口口口 |----|
口口口口 |----|
口口①口
30
口口③口 |①---|
口口②口 |②---|
口口①口 |③---|
口口口口
31
口口口口 |①---|
口①口口 |②---|
口②口口 |③---|
口③口口
32
口口口口 |①---|
口口口口 |----|
口②①口 |②---|
口口口口
33
口口口口 |①---|
③②①口 |②---|
口口口口 |③---|
口口口口
34
口口口口 |①---|
口口口口 |②---|
口①②③ |③---|
口口口口
35
口口口口 |①---|
口①①口 |----|
口口口口 |----|
口口口口
36
口口口口 |----|
口口口口 |----|
口口口口 |----|
口口口口
37
口口口口 |①-②-|
口⑥⑤口 |③-④-|
口④③口 |⑤-⑥-|
口②①口
38
①②②① |①---|
口口口口 |②---|
口口口口 |----|
口口口口
39
口口口口 |①---|
口③①口 |②---|
口②口口 |③---|
口口口口
40
口口口口 |①---|
口口口口 |②---|
口口①口 |----|
口②口口
41
口口口口 |①---|
口②口口 |②---|
口③①口 |③---|
口口口口
42
口②口口 |①---|
口口①口 |②---|
口口口口 |----|
口口口口
43
口口口口 |①---|
口③①口 |②---|
口②口口 |③---|
口口口口
44
口口口口 |①---|
口口口口 |②---|
口口①口 |③---|
口②③口
45
口口口口 |①---|
口③②口 |②---|
口①口口 |③---|
口口口口
46
口口口口 |①---|
口口口口 |②---|
口口①口 |----|
口②口口
47
口口口口 |①---|
口③①口 |②---|
口②口口 |③---|
口口口口
48
口口口口 |①---|
口口口口 |②---|
口口①口 |----|
口②口口
49
口口口口 |①---|
口②口口 |②---|
口③①口 |③---|
口口口口
50
口②口口 |①---|
口口①口 |②---|
口口口口 |----|
口口口口
51
口口口口 |①---|
口③①口 |②---|
口②口口 |③---|
口口口口
52
口口口口 |①---|
口口口口 |②---|
口口①口 |③---|
口②③口
53
口口口口 |①---|
口②②口 |----|
①口口① |②---|
口口口口
54
口口口口 |①---|
口口口口 |----|
口①①口 |----|
口口口口
55
口口口口 |①---|
③②①口 |②---|
口口口口 |③---|
口口口口
56
口口口口 |①---|
口口口口 |----|
口①①口 |----|
口口口口
57
口口口口 |①---|
口①①口 |----|
口口口口 |----|
口口口口
58
口①①口 |①---|
口口口口 |----|
口口口口 |----|
口口口口
59
口口口口 |①---|
口口口口 |----|
口①①口 |----|
口口口口
60
口口口口 |①---|
口口口口 |----|
口口口口 |----|
口①①口
61
口口口口 |①---|
口口口口 |----|
口①①口 |----|
口口口口
62
口口口口 |①---|
口①①口 |----|
口口口口 |----|
口口口口
63
②①①② |①---|
口口口口 |②---|
口口口口 |----|
口口口口
64
口口口口 |①---|
口①①口 |----|
口口口口 |②---|
口②②口
65
①口口① |①---|
口口②口 |----|
口口口口 |②---|
口口口口
66
口口口口 |①---|
口②口口 |----|
口①口口 |②---|
口口口口
67
口口口口 |①---|
口口口② |----|
口口①口 |②---|
口口口口
68
口口口口 |①---|
②口口口 |----|
①口口口 |②---|
口口口口
69
口口口口 |①---|
口口口口 |----|
口口口① |②---|
口口②口
70
口③口口 |①---|
口口②口 |②---|
口①口口 |③---|
口口口口
71
口口口口 |①---|
口口口口 |----|
口①①口 |②---|
口②②口
72
口口口口 |①---|
①口口① |----|
口②②口 |②---|
口口口口
73
①口口① |①---|
口②口口 |----|
口口口口 |②---|
口口口口
74
口口口口 |①---|
口口②口 |----|
口口①口 |②---|
口口口口
75
口口口口 |①---|
口口口口 |----|
口①口口 |----|
口口口口
76
口口口口 |①---|
口口口① |②---|
口口口② |③---|
口口口③
77
口口口口 |①---|
口②②口 |----|
口①口口 |②---|
口口口口
78
口口口口 |①---|
口口口口 |②---|
口①①口 |----|
口②②口
79
①口口口 |----|
口口口口 |----|
口口口口 |①---|
口口口口
80
口口口口 |①---|
①口口口 |②---|
②口口口 |③---|
③口口口
81
口口口口 |①---|
口②①口 |②---|
口①②口 |----|
口口口口 |----|
82
口口口口 |①---|
①①①① |----|
口口口口 |②---|
口②②口
83
①口口① |①---|
口口②口 |----|
口口口口 |②---|
口口口口
84
口口口口 |①---|
口②口口 |----|
口①口口 |②---|
口口口口
85
口口口口 |①---|
口口口② |----|
口口①口 |②---|
口口口口
86
口口口口 |①---|
②口口口 |----|
①口口口 |②---|
口口口口
87
口口口口 |①---|
口口口口 |----|
口口口① |②---|
②口口②
88
③口口③ |①---|
②口口② |②---|
①口口① |③---|
口口口口
89
口口口口 |①---|
口口口口 |----|
口①①口 |②---|
口②②口
90
口口口口 |①---|
①口口① |----|
口②②口 |②---|
口口口口
91
①口口① |①---|
口口②② |----|
口口口口 |②---|
口口口口
92
口口口口 |①---|
②②口口 |----|
①①口口 |②---|
口口口口
93
口口口口 |①---|
口口口口 |----|
口口①① |----|
口口口口
94
口口口口 |①---|
口口口① |②---|
口口口② |③---|
口口口③
95
口口口口 |①---|
口②②口 |----|
口①口口 |②---|
口口口口
96
口口口口 |①---|
口口口口 |②---|
口①①口 |----|
口②②口
97
①口口口 |----|
口口口口 |----|
口口口口 |①---|
口口口口
98
口口口口 |①---|
①口口口 |②---|
②口口口 |③---|
③口口口
99
口口口口 |①---|
口①①口 |②---|
口②②口 |③---|
口③③口
100
口口口口 |①---|
①口口① |----|
口口口口 |----|
口口口口
101
口口口口 |----|
口口口口 |----|
口口口口 |----|
口口口口
102
口口口口 |①---|
口口口口 |②---|
③②①口 |③---|
口口口口
103
口口口口 |①---|
口口①口 |----|
口口口口 |②---|
口②口口
104
口口口口 |①---|
口口口口 |②---|
③②①口 |③---|
口口口口
105
口口口口 |①---|
口口①口 |----|
口口口口 |②---|
口②口口
106
口口口口 |①---|
口口口口 |②---|
③②①口 |③---|
口口口口
107
口口口口 |①---|
口口①口 |----|
口口口口 |②---|
口②口口
108
③②①口 |①---|
口口口口 |②---|
口口口口 |③---|
口口口口
109
口口口口 |①---|
口①②③ |②---|
口口口口 |③---|
口口口口
110
口口口口 |①---|
口口口口 |----|
口①①口 |----|
口口口口
111
口口口口 |----|
口口口口 |----|
口口口口 |----|
口口口口
112
口口口口 |①-②-|
口⑥⑤口 |③-④-|
口④③口 |⑤-⑥-|
口②①口
113
①②②① |①---|
口口口口 |②---|
口口口口 |----|
口口口口

不確定度: 0

最終更新:2017年08月13日 13:13