バビロニア
劇団レコード

ADVANCED

Level: 7
BPM: 164
Notes: 492

1
口口口口 |----|
口口口口 |----|
口口口口 |----|
口口口口
2
口口口口 |----|
口口口口 |----|
口口口口 |----|
口口口口
3
①口口口 |①---|
口口②口 |②-③-|
口③口口 |④---|
口口④口
4
口口口口 |①---|
口口口口 |②---|
口口②① |③---|
口③口口
5
①口口口 |①---|
口口②口 |②-③-|
口③口口 |④---|
口口④口
6
口口口口 |①-②-|
口③口口 |③---|
口口②口 |④---|
口①④口
7
①口口口 |①---|
口口②口 |②-③-|
口③口口 |④---|
口口④口
8
口口口口 |①---|
口口口口 |②---|
口口②① |③---|
口③口口
9
①口口口 |①---|
口口②口 |②-③-|
口③口口 |④---|
口口④口
10
口口口口 |①-②-|
口③口口 |③---|
口口②口 |④---|
口①④口
11
①口口① |①---|
口口②口 |②-③-|
口③口口 |④---|
口口④口
12
口口口口 |①---|
口口口口 |②---|
口口②① |③---|
口③口口
13
①口口① |①---|
口口②口 |②-③-|
口③口口 |④---|
口口④口
14
口口口口 |①-②-|
口③口口 |③---|
口口②口 |④---|
口①④口
15
①口口① |①---|
口口②口 |②-③-|
口③口口 |④---|
口口④口
16
口口口口 |①---|
口口口口 |②---|
口口②① |③---|
口③口口
17
①口口① |①---|
口口②口 |②-③-|
口③口口 |④---|
口口④口
18
口口口口 |①-②-|
口③口口 |③---|
口口②口 |④---|
口①④口
19
口口口① |①-②-|
口③口② |③-④-|
口④⑤口 |⑤-⑥-|
口口⑥口
20
①口口口 |①---|
口口口口 |②-③-|
②③⑤④ |④-⑤-|
口口口口
21
口口口口 |①---|
口①口口 |----|
口口口口 |----|
口口口口
22
③口口口 |①---|
口②口口 |②---|
口口①口 |③---|
口口口口
23
口口口① |①-②-|
口③口② |③-④-|
口④⑤口 |⑤-⑥-|
口口⑥口
24
①口口⑤ |①---|
口口④口 |②-③-|
口③口口 |④-⑤-|
②口口口
25
口③②口 |①-②-|
④口口① |③-④-|
⑤口口口 |⑤-⑥-|
口⑥口口
26
口④⑥口 |①-②-|
口⑤③口 |③-④-|
口口口② |⑤-⑥-|
口口①口
27
①口口口 |①-②-|
②口③口 |③-④-|
口⑤④口 |⑤-⑥-|
口⑥口口
28
口口口① |①---|
口口口口 |②-③-|
④⑤③② |④-⑤-|
口口口口
29
口口口口 |①---|
口口①口 |----|
口口口口 |----|
口口口口
30
口口口③ |①---|
口口②口 |②---|
口①口口 |③---|
口口口口
31
①口口口 |①-②-|
②口③口 |③-④-|
口⑤④口 |⑤-⑥-|
口⑥口口
32
⑤口口① |①---|
口④口口 |②-③-|
口口③口 |④-⑤-|
口口口②
33
口②③口 |①-②-|
①口口④ |③-④-|
口口口⑤ |⑤-⑥-|
口口⑥口
34
口⑥④口 |①-②-|
口③⑤口 |③-④-|
②口口口 |⑤-⑥-|
口①口口
35
口口口口 |①---|
口口口口 |----|
口口口口 |----|
口①①口
36
口口口口 |----|
口口口口 |----|
口口口口 |----|
口口口口
37
口口口口 |①-②-|
⑥口口⑤ |③-④-|
④口口③ |⑤-⑥-|
②口口①
38
口①①口 |①---|
口口口口 |②---|
口口口口 |----|
口②②口
39
口口口口 |①-②-|
口②①口 |③-④-|
口④③口 |⑤-⑥-|
口⑥⑤口
40
口口口口 |①---|
②口口① |②---|
口口口口 |----|
口口口口
41
口口口口 |①-②-|
口②①口 |③-④-|
口④③口 |⑤-⑥-|
口⑥⑤口
42
口口口③ |①-②-|
口口口② |③---|
口口口① |----|
口口口口
43
口口口口 |①-②-|
口②①口 |③-④-|
口④③口 |⑤-⑥-|
口⑥⑤口
44
②口口① |①---|
口口口口 |②---|
口口口口 |③---|
③口口口
45
口口口口 |①-②-|
口⑥⑤口 |③-④-|
口④③口 |⑤-⑥-|
口②①口
46
②口口① |①---|
口口口口 |②---|
口口口口 |----|
口口口口
47
口口口口 |①-②-|
②口口① |③-④-|
④口口③ |⑤-⑥-|
⑥口口⑤
48
②②①① |①---|
口口口口 |②---|
口口口口 |----|
口口口口
49
口口口口 |①-②-|
②口口① |③-④-|
④口口③ |⑤-⑥-|
⑥口口⑤
50
③口口③ |①-②-|
口②②口 |③---|
口①①口 |----|
口口口口
51
口口口口 |①-②-|
②口口① |③-④-|
④口口③ |⑤-⑥-|
⑥口口⑤
52
②②①① |①---|
口口口口 |②---|
口口口口 |③---|
口③③口
53
口口④口 |①---|
口③口口 |--②-|
①口②① |③-④-|
口口口口
54
口口口口 |①---|
口口口口 |----|
口口口口 |----|
口①①口
55
口口③口 |①-②-|
口②口口 |③---|
口口①口 |④---|
口④口口
56
口口口口 |①---|
口口②口 |②-③-|
①口③① |④---|
口口④口
57
①口口口 |①---|
②①口口 |②---|
③②口口 |③---|
口③口口
58
①口口① |①---|
口口②口 |②-③-|
口口③口 |④---|
口口④口
59
口口口口 |①---|
①口口① |----|
口口口口 |----|
口口口口
60
口口口口 |①---|
口②口口 |②-③-|
①③口① |④---|
口④口口
61
口口口③ |①---|
口口③② |②---|
口口②① |③---|
口口①口
62
③口口口 |①---|
②③口口 |②---|
①②口口 |③---|
口①口口
63
口③②口 |①-②-|
③口口② |③---|
口口口口 |④---|
口①①④
64
④口口口 |①②③-|
口口口口 |----|
③②①口 |④---|
口口口口
65
口④口口 |①②③-|
④①②③ |----|
口口口口 |④---|
口口口口
66
口口②口 |①---|
口口口② |----|
口口口① |②---|
口口①口
67
口口口口 |①---|
口口口② |----|
①口口③ |②-③-|
口①口口
68
口口口口 |①---|
口口口口 |----|
④③②口 |②③④-|
口口口①
69
②口口口 |①---|
③口口口 |----|
口口口口 |②-③-|
口①口口
70
③③口口 |①---|
口口口口 |②---|
①口口口 |③---|
口口②②
71
口口口口 |①②③-|
口①②③ |----|
口口口口 |④---|
口④④口
72
④口口口 |①②③-|
口口口口 |----|
③②①口 |④---|
口口口口
73
口④口口 |①②③-|
④①②③ |----|
口口口口 |④---|
口口口口
74
口口口口 |①---|
③③口口 |--②-|
④④②① |③-④-|
口口①口
75
口口口口 |①---|
口口口口 |----|
口③②口 |--②③|
①①口口
76
口口口口 |①---|
口②③④ |②③④-|
①口口口 |⑤---|
口⑤口口
77
口口①口 |①---|
口口口口 |----|
②口口② |②---|
口口口口
78
口①①口 |①---|
口口口口 |②---|
口口口口 |----|
②②②②
79
①口口① |①---|
口口口③ |----|
口口口② |②-③-|
口口口口
80
口口口① |①---|
口口口口 |②---|
口②口口 |③---|
口口③口
81
③③③③ |①-②-|
②口口② |③---|
①口口① |----|
口口口口 |----|
82
④口口口 |①②③-|
口口口口 |----|
③②①口 |④---|
口口口口
83
口④口口 |①②③-|
④①②③ |----|
口口口口 |④---|
口口口口
84
口口②口 |①---|
口口口② |----|
口口口① |②---|
口口①口
85
口口口口 |①---|
口口口② |----|
①口口③ |②-③-|
口①口口
86
口口口口 |①---|
口口口口 |----|
④③②口 |②③④-|
口口口①
87
②口口口 |①---|
③口口口 |----|
口口口口 |②-③-|
口①口口
88
口③口④ |①-②-|
口口口口 |③-④-|
①口⑥口 |⑤-⑥-|
⑤口口②
89
口口口口 |①②③-|
口①②③ |----|
口口口口 |④---|
口④④口
90
④口口口 |①②③-|
口口口口 |----|
③②①口 |④---|
口口口口
91
口④口口 |①②③-|
④①②③ |----|
口口口口 |④---|
口口口口
92
口口口口 |①---|
③③口口 |--②-|
④④②① |③-④-|
口口①口
93
口口口口 |①---|
口口口口 |----|
口③②口 |--②③|
①①口口
94
口口口口 |①---|
口②③④ |②③④-|
①口口口 |⑤---|
口⑤口口
95
口口①口 |①---|
口口口口 |----|
②口口② |②---|
口口口口
96
口①①口 |①---|
口口口口 |②---|
口口口口 |----|
②②②②
97
①口口① |①---|
口口口③ |----|
口口口② |②-③-|
口口口口
98
口口口① |①---|
口口口口 |②---|
口②口口 |③---|
口口③口
99
口①②口 |①---|
①口口② |②---|
口口口口 |③---|
③③③③
100
口口口口 |①②③-|
口口口口 |----|
③②①口 |----|
口口口口
101
口口口口 |----|
口口口口 |----|
口口口口 |----|
口口口口
102
①口口① |①---|
口口②口 |②-③-|
口③口口 |④---|
口口④口
103
口口口口 |①---|
口口口口 |②---|
口口②① |③---|
口③口口
104
①口口① |①---|
口口②口 |②-③-|
口③口口 |④---|
口口④口
105
口口口口 |①-②-|
口③口口 |③---|
口口②口 |④---|
口①④口
106
①口口① |①---|
口口②口 |②-③-|
口③口口 |④---|
口口④口
107
口口口口 |①---|
口口口口 |②---|
口口②① |③---|
口③口口
108
①口口① |①---|
口口②口 |②-③-|
口③口口 |④---|
口口④口
109
口口口口 |①---|
口口口口 |②---|
口口②① |③---|
口③口口
110
①口口① |①---|
口口口口 |----|
口口口口 |----|
口口口口
111
口口口口 |①---|
口口口口 |----|
口口口口 |----|
口①①口
112
口口口口 |①-②-|
⑥口口⑤ |③-④-|
④口口③ |⑤-⑥-|
②口口①
113
口①①口 |①---|
口口口口 |②---|
口口口口 |----|
②②②②

不確定度: 0

最終更新:2017年08月13日 13:13