バビロニア
劇団レコード

EXTREME

Level: 9
BPM: 164
Notes: 644

1
口口口口 |----|
口口口口 |----|
口口口口 |----|
口口口口
2
口口口口 |----|
口口口口 |----|
口口口口 |----|
口口口口
3
①口口口 |①---|
口口口② |②-③-|
口口③口 |④---|
口④口口
4
口口①口 |①---|
口口口口 |②---|
口②口口 |③---|
口口口③
5
①口口口 |①---|
口口口② |②-③-|
口口③口 |④---|
口④口口
6
口口③口 |①-②-|
口口口口 |③---|
口口口① |④---|
口口②④
7
①口口口 |①---|
口口口② |②-③-|
口口③口 |④---|
口④口口
8
口口①口 |①---|
口口口口 |②---|
口②口口 |③---|
口口口③
9
①口①② |①---|
口口③口 |②-③-|
口④口口 |④---|
口口口口
10
口口③口 |①-②-|
口口口口 |③---|
口口口① |④---|
口②口④
11
①口口口 |①---|
②口口② |②-③-|
口②③口 |④---|
口④口口
12
口口①口 |①---|
③②口口 |②---|
②③口口 |③---|
口口口③
13
①口口口 |①---|
口②口② |②-③-|
②口③口 |④---|
口④口口
14
口口③口 |①-②-|
①口口口 |③---|
③口口① |④---|
④④②④
15
①口口口 |①---|
口②口② |②-③-|
②口③口 |④---|
口④口口
16
口口①口 |①---|
②③口口 |②---|
③②口口 |③---|
口口口③
17
②②①② |①---|
口口③口 |②-③-|
口④口口 |④---|
口口口口
18
④④③口 |①-②-|
③口口口 |③---|
①口口① |④---|
口②口④
19
口口口⑥ |①②③-|
口口④口 |④-⑤-|
口③②① |⑥-⑦-|
口⑤⑦口
20
口⑤②口 |①---|
①口口口 |②-③-|
①口口口 |④-⑤-|
④口口③
21
口口口口 |①---|
口口口① |----|
口口口① |----|
口口口口
22
口口口③ |①---|
口口口② |②---|
口口口① |③---|
口口口口
23
口口口⑤ |①-②-|
口①③口 |③-④-|
口口口口 |⑤-⑥-|
②④⑥口
24
口③⑤口 |①---|
①口口口 |②-③-|
①口口口 |④-⑤-|
②口口④
25
③口口① |①-②-|
口口口口 |③-④-|
⑤口口⑥ |⑤-⑥-|
口④②口
26
⑤口①③ |①-②-|
口⑤③① |③-④-|
口口口口 |⑤-⑥-|
⑥④②口
27
口口①⑤ |①-②-|
口口③口 |③-④-|
口②口口 |⑤-⑥-|
口④⑥口
28
口⑤②口 |①---|
①口口口 |②-③-|
①口口口 |④-⑤-|
④口口③
29
口口口口 |①---|
口口口① |----|
口口口① |----|
口口口口
30
口口口③ |①---|
口口口② |②---|
口口口① |③---|
口口口口
31
口口口⑤ |①-②-|
口①③口 |③-④-|
口口口口 |⑤-⑥-|
②④⑥口
32
口③⑤口 |①---|
①口口口 |②-③-|
①口口口 |④-⑤-|
②口口④
33
③口口① |①-②-|
口口口口 |③-④-|
⑤口口⑥ |⑤-⑥-|
口④②口
34
⑤口①③ |①-②-|
口⑤③① |③-④-|
口口口口 |⑤-⑥-|
⑥④②口
35
口①口口 |①---|
①口③口 |②---|
口口口口 |③---|
口口②口
36
口口口口 |----|
口口②口 |①---|
口口口口 |②---|
口口①口
37
口⑤⑥口 |①-②-|
③④口⑥ |③-④-|
①②④⑤ |⑤-⑥-|
口①③口
38
口口口① |①---|
口口口口 |②---|
口口口口 |----|
①口口②
39
口口⑤口 |①-②-|
口口⑥口 |③-④-|
③④②① |⑤-⑥-|
口口口口
40
口①口① |①---|
口口口口 |②---|
口口②口 |----|
口口口口
41
口⑤口口 |①-②-|
口⑥口口 |③-④-|
①②④③ |⑤-⑥-|
口口口口
42
①口①口 |①-②-|
口口口口 |③---|
口③口口 |----|
口②口口
43
口口⑤口 |①-②-|
③④⑥口 |③-④-|
口口②① |⑤-⑥-|
口口口口
44
口①③① |①---|
口口口口 |②---|
口口口口 |③---|
口口②口
45
口⑥口口 |①-②-|
口⑤口口 |③-④-|
①②④③ |⑤-⑥-|
口口口口
46
①口①④ |①---|
口口口④ |②-③-|
口③口口 |④---|
②口②口
47
口口⑤口 |①-②-|
③④⑥口 |③-④-|
口口②① |⑤-⑥-|
口口口口
48
口②③② |①---|
口口口口 |②---|
口口②口 |③---|
口①口①
49
口⑤口口 |①-②-|
口⑥口口 |③-④-|
①②④③ |⑤-⑥-|
口口口口
50
①口①口 |①-②-|
口口口口 |③---|
口③口口 |----|
口②口口
51
①⑦口口 |①②③④--|
②⑧口口 |⑤-⑥-|
③口⑥⑤ |⑦-⑧-|
④口口口
52
①③①口 |①---|
口口口口 |②---|
口口口口 |③---|
口②口口
53
口④口口 |①---|
口口③口 |--②-|
①②①口 |③-④-|
口口口口
54
口口口口 |①---|
口口口口 |----|
口口口口 |----|
口①①口
55
口口③口 |①-②-|
口②口口 |③---|
口口①口 |④---|
口④口口
56
②⑥口⑥ |①---|
③口口① |②③④⑤--|
④口口① |⑥---|
⑤口口口
57
口口口口 |①---|
口②口① |②---|
口口③口 |③---|
口①口②
58
②⑥口⑥ |①---|
③口口① |②③④⑤--|
④口口① |⑥---|
⑤口口口
59
口口口口 |①---|
口口口口 |----|
口口口口 |----|
口口①口
60
②⑥口⑥ |①---|
③口口① |②③④⑤--|
④口口① |⑥---|
⑤口口口
61
口③口口 |①---|
③②口① |②---|
口口②口 |③---|
口①口口
62
口③口口 |①---|
口口②口 |②---|
①②口③ |③---|
口①口口
63
②口口③ |①-②-|
口②③口 |③---|
口口口口 |④---|
④①①口
64
口口口④ |①②③-|
口口口口 |----|
口③②① |④---|
口口口口
65
口口④口 |①②③-|
①②③口 |----|
口口口口 |④---|
口口口口
66
口④口口 |①-②-|
④⑤②口 |--③-|
口③口口 |④-⑤-|
口①口口
67
③口口④ |①-②-|
口口口口 |③---|
口⑤②① |④-⑤-|
口口①口
68
口口口口 |①-②-|
口③②口 |--③-|
①⑥⑤④ |④⑤⑥-|
口①口口
69
④③口① |①-②-|
③⑤口口 |③---|
口口口口 |④-⑤-|
口②口口
70
口口⑤④ |①-②-|
口口口⑤ |③-④-|
③⑥②① |⑤-⑥-|
口③①口
71
④口口⑤ |①②③-|
①②③口 |④---|
口口口口 |⑤---|
⑤口口口
72
口①口④ |①②③-|
口②口口 |----|
口③②① |④---|
口口口口
73
口口口④ |①②③-|
①②③口 |----|
口口②口 |④---|
④口①口
74
①③④口 |①---|
③口口口 |--②-|
④口口② |③-④-|
口口②①
75
③口口① |①---|
口口口口 |②---|
口口⑤④ |③-④⑤|
①口口②
76
口口口口 |①---|
②③④口 |②③④-|
口①口口 |⑤---|
口⑤口口
77
口口①口 |①---|
②口口口 |----|
③口口口 |②③④---|
④口口口
78
口口口口 |①②③④|
口④③口 |⑤---|
口②①口 |----|
口⑤口口
79
②①①口 |①---|
口口口口 |----|
口口③口 |②-③-|
口口口口
80
口口口⑤ |①---|
②口口口 |②③④---|
③口口① |⑤---|
④口①口
81
②口③口 |①-②-|
口口①③ |③---|
③①口口 |----|
口③口② |----|
82
口口⑤口 |①②③-|
口口口⑤ |④---|
口③②① |⑤---|
口口④口
83
口口⑤口 |①②③-|
①②③⑤ |④---|
口④口口 |⑤---|
口口口口
84
口④口口 |①-②-|
④⑤②口 |--③-|
①③口口 |④-⑤-|
口①口口
85
③口口④ |①-②-|
口口口口 |③---|
口⑤②① |④-⑤-|
口口①口
86
口口口口 |①-②-|
口③②口 |--③-|
①⑥⑤④ |④⑤⑥-|
口①口口
87
④③①⑤ |①-②-|
③口口① |③---|
口口口口 |④-⑤-|
⑤②口④
88
⑤③④口 |①-②-|
口①②⑥ |③-④-|
④②①③ |⑤-⑥-|
口⑥口⑤
89
⑤口口④ |①②③-|
①②③口 |④---|
口口口口 |⑤---|
④口口⑤
90
⑥①④⑤ |①②③-|
口②口④ |④-⑤-|
口③②① |⑥---|
口口口⑥
91
⑥口口口 |①②③-|
①②③口 |④-⑤-|
④⑤②口 |⑥---|
口④①⑥
92
口④⑤① |①-②-|
④口口口 |--③-|
⑤口②③ |④-⑤-|
①口③口
93
③口口① |①-②-|
口①口口 |③---|
口口⑥⑤ |④-⑤⑥|
①④④②
94
口口口口 |①---|
②③④口 |②③④-|
口①口口 |⑤---|
口⑤口口
95
口口①口 |①---|
②口口口 |----|
③口口口 |②③④---|
④口口口
96
⑥口口⑥ |①②③④|
口④③口 |⑤---|
口②①口 |⑥---|
口⑤口口
97
③①①口 |①---|
口口口口 |②---|
口口④口 |③-④-|
口②口口
98
口口⑦口 |①-②-|
③口②⑦ |③④⑤⑥--|
④⑥⑧① |⑦-⑧-|
⑤口①口
99
口①③① |①---|
②口③③ |②---|
②口口① |③---|
③②②口
100
口口口口 |①②③-|
口口口口 |----|
口③②① |----|
口口口口
101
口口口口 |----|
口口口口 |----|
口口口口 |----|
口口口口
102
①口口口 |①---|
口口口② |②-③-|
口口③口 |④---|
口④口口
103
口口①口 |①---|
口②口口 |②---|
①口口口 |③---|
口③口③
104
①口口口 |①---|
口口口② |②-③-|
口口③口 |④---|
口④口口
105
①口③口 |①-②-|
口口口口 |③---|
③口口① |④---|
④口②④
106
①口口口 |①---|
口口口② |②-③-|
口口③口 |④---|
口④口口
107
口口①口 |①---|
口②口口 |②---|
①口口口 |③---|
口③口③
108
①口①② |①---|
口口③口 |②-③-|
口④口口 |④---|
口口口口
109
①口②口 |①---|
口口口口 |②---|
②口口① |③---|
③口口③
110
⑤⑤④④ |①②③-|
口口口口 |④---|
口③②① |⑤---|
口口口口
111
④口口④ |①-②-|
口口①口 |③---|
口②口口 |④---|
口口③口
112
口⑤⑥口 |①-②-|
③④口⑥ |③-④-|
①②④⑤ |⑤-⑥-|
口①③口
113
口口口① |①---|
口口口口 |②---|
口口口口 |----|
①口口②

不確定度: 0

最終更新:2017年08月13日 13:12