Ψです I LIKE YOU
でんぱ組.inc

EXTREME

Level: 9
BPM: 220
Notes: 663

1
口口口口 |------|
口口口口 |------|
口口口口 |------|
口口口口 |------|
2
口口口口 |------|
口口口口 |------|
口口口口 |①-----|
口①①口 |------|
3
口口①④ |①-----|
③口口口 |②-----|
口口②口 |③-----|
口口口口 |④-----|
4
④⑤口口 |①---②-|
口口③② |③---④-|
⑤④口口 |----⑤-|
口口①口 |------|
5
口口①④ |①-----|
③口口口 |②-----|
口口②口 |③-----|
口口口口 |④-----|
6
④⑤口口 |①---②-|
口口③② |③---④-|
⑤④口口 |----⑤-|
口口①口 |------|
7
口口①④ |①-----|
③口口口 |②-----|
口口②口 |③-----|
口口口口 |④-----|
8
④⑤口口 |①---②-|
口口③② |③---④-|
⑤④口口 |----⑤-|
口口①口 |------|
9
③④口口 |①-----|
口口②口 |②---③-|
④③口口 |----④-|
口①①口 |------|
10
口口④③ |①-----|
口②口口 |②---③-|
口口③④ |----④-|
口①①口 |------|
11
④口口④ |①-----|
①口③口 |②-----|
①②③口 |③-----|
口②口口 |----④-|
12
口口③口 |------|
口口口③ |①-----|
口①口口 |②-----|
口口②口 |③-----|
13
④口口④ |①-----|
①口口口 |②-----|
②口口口 |③-----|
③口口口 |----④-|
14
口①①口 |------|
口口口口 |①-----|
口口②口 |②-----|
口③口口 |③-----|
15
④口口④ |①-----|
口口口① |②-----|
口口口② |③-----|
口口口③ |----④-|
16
口③口口 |------|
③口口口 |①-----|
口口①口 |②-----|
口②口口 |③-----|
17
②口口① |①-----|
口口口口 |②-----|
口口④口 |③-----|
①③③② |----④-|
18
口口口口 |①-----|
口口④③ |------|
口①口口 |②---③-|
口②②口 |④-----|
19
④口口④ |①-----|
①口口口 |②-----|
②口口口 |③-----|
③口口口 |----④-|
20
口口③口 |------|
口口口③ |①-----|
口①口口 |②-----|
口口②口 |③-----|
21
④口口④ |①-----|
①口③口 |②-----|
①②③口 |③-----|
口②口口 |----④-|
22
口①①口 |------|
口口口口 |①-----|
口口②口 |②-----|
口③口口 |③-----|
23
④口口④ |①-----|
口口口① |②-----|
口口口② |③-----|
口口口③ |----④-|
24
口③口口 |------|
③口口口 |①-----|
口口①口 |②-----|
口②口口 |③-----|
25
②口④① |①-----|
口口口口 |②-----|
口口口口 |③-----|
①③③② |----④-|
26
口①口口 |①-----|
口口口口 |------|
口口口口 |②-----|
②②②② |------|
27
口口口口 |①-----|
口口口口 |------|
口口①口 |②-----|
口②口口 |------|
28
口②口口 |①-----|
②①口口 |------|
口口口口 |②-----|
口口口口 |------|
29
口口③② |①-----|
口口口④ |----②-|
口口口口 |③-----|
口口①口 |----④-|
30
③口口口 |①-----|
口口①口 |②-----|
口口口口 |③-----|
②口口口 |------|
31
口口口口 |①-----|
口口口口 |------|
口口①口 |②-----|
口②口口 |------|
32
口②口口 |①-----|
②①口口 |------|
口口口口 |②-----|
口口口口 |------|
33
口口口口 |①-----|
口口口④ |----②-|
口口③② |③-----|
口口①口 |----④-|
34
②口口② |①-----|
口口①口 |------|
口口口口 |②-----|
口口口口 |------|
35
口口口口 |①-----|
口口口口 |------|
口口①① |②-----|
口②②口 |------|
36
口②口口 |①-----|
②①①口 |------|
口口口口 |②-----|
口口口口 |------|
37
口口③② |①-----|
口口口④ |----②-|
口口口口 |③-----|
口①①口 |----④-|
38
口口口口 |①-----|
口口①口 |------|
口口口口 |②-----|
口口②② |------|
39
④口①① |①-----|
③口口④ |②-----|
②口④口 |③-----|
①口口口 |④-----|
40
口④口口 |①-----|
口③①口 |②-----|
口②口① |③-----|
口①④④ |④-----|
41
口口①② |①-----|
④口口① |②-----|
③口口口 |③-----|
②③④口 |④-----|
42
①①口② |①-----|
口口②口 |------|
口②口① |②-----|
②口口① |------|
43
口口口口 |①---②-|
③口⑧② |③---④-|
口⑤④口 |⑤---⑥-|
⑦①①⑥ |⑦---⑧-|
44
口⑦⑥口 |①---②-|
⑦①口⑥ |③---④-|
③口口② |⑤---⑥-|
口⑤④口 |⑦-----|
45
①⑥⑤① |①---②-|
口口口口 |③-----|
⑦③②④ |④---⑤-|
口⑦④口 |⑥---⑦-|
46
③⑤④③ |----①-|
⑤口口④ |②---③-|
口②①口 |----④-|
口口口口 |⑤-----|
47
③口口④ |----①-|
口口口口 |②-----|
口口⑤口 |③---④-|
④②①③ |----⑤-|
48
⑥口②⑥ |①-----|
口③口口 |②-③-④-|
口①口④ |⑤-----|
口口⑤口 |⑥-----|
49
口②②口 |①-----|
①口①口 |------|
①①①口 |②-----|
口①口口 |------|
50
③口③① |①-----|
②③口① |②-----|
②③口① |③-----|
②②口① |------|
51
口④口① |①---②-|
④口口① |③-----|
口口口口 |④-----|
口③②口 |------|
52
③口⑤⑦ |①---②-|
口③⑦⑤ |③---④-|
①①①① |⑤---⑥-|
⑥④②口 |⑦-----|
53
④②③④ |①-----|
②口口③ |②-----|
③①①② |③-----|
口③②口 |④-----|
54
⑥③⑤⑥ |①---②-|
③口口⑤ |③---④-|
口④②口 |⑤-----|
①口口① |⑥-----|
55
⑥口口⑥ |①---②-|
口①①口 |③---④-|
③⑤②④ |⑤-----|
⑤③④② |⑥-----|
56
口③①⑥ |①---②-|
③④口① |③---④-|
口口②⑤ |⑤-----|
⑥口⑤口 |⑥-----|
57
④口③口 |①---②-|
口⑤⑤③ |③-----|
①②口口 |④-----|
口①口④ |⑤-----|
58
②②②② |①-----|
口口口口 |------|
口口口口 |②-----|
口①①口 |------|
59
⑥⑤口口 |①---②-|
口②口口 |③---④-|
⑤⑥④③ |⑤-----|
①口③① |⑥-----|
60
⑦⑤①③ |①---②-|
⑤⑦③① |③---④-|
口口口口 |⑤---⑥-|
口②④⑥ |⑦-----|
61
口③②口 |①-----|
③④④② |②-----|
②①①③ |③-----|
口②③口 |④-----|
62
口⑤③口 |①---②-|
⑤⑦⑦③ |③---④-|
口②④口 |⑤---⑥-|
①⑥⑥① |⑦-----|
63
①⑥⑥① |①---②-|
⑤口口④ |③---④-|
③⑤④② |⑤-----|
③口口② |⑥-----|
64
①口口① |①-----|
口②口口 |②-----|
③口口口 |③-----|
口④③口 |④-----|
65
口①口口 |①---②-|
①口③② |③---④-|
口口⑤④ |⑤-----|
口口口口 |------|
66
口④口① |①-----|
③口口口 |②-----|
口②口口 |③-----|
①口③口 |④-----|
67
口口口口 |①---②-|
口口⑤④ |③---④-|
①口③② |⑤-----|
口①口口 |------|
68
口④口① |①-----|
③口口口 |②-----|
口②口口 |③-----|
①口③口 |④-----|
69
口⑥⑥口 |①---②-|
口口⑤④ |③---④-|
①口③② |⑤-----|
口①口口 |⑥-----|
70
口口口口 |①-----|
口口口口 |------|
②②②② |②-----|
①①①① |------|
71
口口口① |①-②-③-|
⑥②⑤⑨ |④-⑤-⑥-|
⑩⑫⑦口 |⑦-⑧-⑨-|
④⑧⑪③ |⑩-⑪-⑫-|
72
①①①① |①-----|
口口口口 |------|
口口口口 |------|
口口口口 |------|
73
③口④④ |①-----|
②口口口 |②-----|
口③①② |③-----|
口①口口 |④-----|
74
口①④口 |①-----|
口口口④ |②-----|
①口口② |③-----|
③③口② |④-----|
75
口③口⑥ |①-----|
②口口口 |②-----|
②①①口 |③-④-⑤-|
⑥⑤④③ |⑥-----|
76
口③口口 |①-----|
③口①口 |②-----|
②口②① |③-----|
口④④口 |④-----|
77
②口④口 |①-----|
口②口④ |②-----|
口③③口 |③-----|
①口口① |④-----|
78
④口口④ |①---②-|
口③②口 |③---④-|
口口口口 |------|
①口口① |------|
79
④口口④ |①---②-|
口口口口 |③---④-|
口③②口 |------|
①口口① |------|
80
口口口⑨ |①-②-③-|
口⑧口⑦ |④-----|
口⑥口⑤ |⑤⑥⑦⑧|
④③②① |⑨-----|
81
⑤口⑦口 |①②③④|
③口④口 |⑤---|
①⑧②口 |⑥---⑦-|
⑥口口⑥ |⑧-----|
82
口②口① |①②③④|
⑥④⑦③ |⑤---|
⑧口⑨⑤ |⑥⑦⑧⑨|
⑩口⑪口 |⑩⑪--|
83
⑤口口⑤ |①②-③|
口④口③ |④---|
口⑦⑥口 |⑤---⑥-|
口②口① |⑦-----|
84
④口口④ |①-----|
③口口② |②-----|
口口口口 |③-----|
①③②① |④-----|
85
口③②口 |①---②-|
口⑤⑤口 |③---④-|
①口口① |------|
④口口④ |⑤-----|
86
口④③口 |①-----|
口口口口 |②---③-|
②口口② |④-----|
⑤①①⑤ |⑤-----|
87
④⑦⑤④ |①---②-|
①口口① |③---④-|
④⑥口④ |----⑤-|
口③②口 |⑥---⑦-|
88
④口口④ |①-----|
③口口② |②-----|
口口①口 |③-----|
口③②口 |④-----|
89
⑤③②⑤ |①---②-|
口口口口 |③---④-|
①口口① |------|
④口口④ |⑤-----|
90
口②②口 |①-----|
①口①口 |------|
①①①口 |②-----|
口①口口 |------|
91
口口口① |①-----|
②口口① |------|
②口口① |②-----|
②②口① |------|
92
①口①② |①-----|
口①口口 |②-----|
口①口口 |③-----|
③口口④ |④-----|
93
口口⑤④ |①---②-|
②③口口 |③---④-|
口口④⑤ |----⑤-|
口①①口 |------|
94
③④口口 |①-----|
口口②口 |②---③-|
④③口口 |----④-|
口①①口 |------|
95
④④④④ |①-----|
④②②④ |②---③-|
口口口口 |----④-|
①③③① |------|

不確定度: 0

最終更新:2017年08月03日 01:47