Lead Me
SHOGO

ADVANCED

Level: 7
BPM: 172
Notes: 418

1
口口口口 |----|
口口口口 |----|
口口口口 |----|
口口口口 |----|
2
①①⑥⑤ |①-②-|
口③口口 |③-④-|
口口②口 |--⑤-|
⑤口④④ |--⑥-|
3
口口口口 |----|
⑤口口⑤ |①-②-|
④①口④ |--③-|
③口②③ |④-⑤-|
4
①口口① |①---|
口③口口 |②-③-|
⑤口②④ |--④-|
口⑤④口 |--⑤-|
5
口①②口 |--①-|
①③口② |--②-|
口⑤④口 |--③-|
口口口口 |④-⑤-|
6
②口口③ |①---|
口口①④ |--②-|
口口⑤口 |--③-|
口口口口 |④-⑤-|
7
③口③口 |①-②-|
②④②④ |----|
⑤口⑤口 |--③-|
口①口口 |④-⑤-|
8
口口口口 |①---|
口口口③ |--②-|
口④口⑤ |--③-|
②①②① |④-⑤-|
9
①口口口 |----|
口口口口 |①---|
③口口③ |②---|
②口口② |③---|
10
口口口口 |①---|
①①①① |----|
口口口口 |----|
②②②② |--②-|
11
口口口口 |----|
口口口口 |----|
口口口口 |----|
口口口口 |----|
12
①②口口 |①-②-|
③④口口 |③-④-|
⑤⑥口口 |⑤-⑥-|
口口口⑦ |--⑦-|
13
⑤⑥⑦⑧ |①-②-|
口口③④ |③-④-|
口口①② |⑤-⑥-|
口口口口 |⑦-⑧-|
14
口口口口 |①---|
口口口③ |----|
口口口口 |--②-|
①①口② |--③-|
15
③口②① |①-②-|
口口口口 |--③-|
④口口口 |--④-|
口⑤⑤口 |--⑤-|
16
⑤④口③ |①---|
⑥口口② |②-③-|
口口口口 |--④-|
口口口① |⑤-⑥-|
17
口口口⑦ |①-②-|
口口口⑥ |③-④-|
①口口⑤ |--⑤-|
②③④口 |⑥-⑦-|
18
②口①口 |①---|
③口口口 |②-③-|
口口口口 |--④-|
④⑤⑤口 |⑤---|
19
口口口口 |----|
口口口③ |----|
口口口② |--①-|
口口口① |②-③-|
20
②口①① |①---|
口口口口 |--②-|
③口口口 |--③-|
④⑤口口 |④-⑤-|
21
口口口口 |①---|
口口口口 |--②-|
口口②② |----|
口口①口 |----|
22
①①口② |①---|
口口口口 |--②-|
口口口③ |--③-|
口口⑤④ |④-⑤-|
23
④⑤⑥口 |①-②-|
③③口口 |--③-|
口口口口 |--④-|
②①口口 |⑤-⑥-|
24
口口口① |①-②-|
⑦口②口 |③-④-|
⑥口口③ |--⑤-|
⑤口④④ |⑥-⑦-|
25
①口②② |①---|
口口③③ |②---|
口口④④ |③---|
口口口口 |④---|
26
口口口口 |①---|
口口口口 |②-③-|
③口口口 |----|
②口①① |----|
27
①口③④ |----|
口②口口 |----|
口口口口 |①-②-|
口口口口 |③-④-|
28
口口口口 |----|
口口口口 |①-②-|
口④口① |③-④-|
⑤口③② |⑤---|
29
①口口口 |----|
口口口② |----|
①口口口 |①---|
口口口② |②---|
30
口口口口 |①---|
口①①口 |----|
口口口口
口口口口

口口口口
口③口口
口口口③ |----|
口②②口 |②-③-|
31
②口口② |----|
口④①口 |①---|
①口③口 |②-③-|
口口口口 |--④-|
32
口口①口 |①---|
口口②② |②-③-|
③③口口 |----|
口口口口 |----|
33
①口口口 |----|
口口②口 |----|
口③口口 |--①-|
口口口口 |②-③-|
34
⑤口⑤口 |①---|
口④口④ |②-③-|
口口口口 |--④-|
②③②① |--⑤-|
35
口口口口 |----|
口③口③ |①---|
口②口② |②---|
口①口① |③---|
36
口③口③ |①---|
②口②口 |----|
口口口口 |--②-|
①口①口 |③---|
37
②口口口 |①---|
口④④③ |----|
②①口① |②--③|
口口口③ |--④-|
38
口口口口 |①---|
②口口口 |②-③-|
口①①③ |--④-|
④④⑤⑤ |--⑤-|
39
③口口④ |----|
口口口② |①---|
①口口口 |②--③|
口口口口 |--④-|
40
口口口口 |①---|
②口口② |----|
口①①口 |----|
口③③口 |②-③-|
41
①②③口 |----|
口口口口 |①---|
口③②① |②---|
口口口口 |③---|
42
②口口② |①---|
①口口① |②-③-|
③口口③ |④---|
④口口④ |----|
43
④口口③ |----|
②口口口 |①---|
口口口① |②-③-|
口口口口 |--④-|
44
口口③口 |①---|
口②口口 |----|
口口④④ |--②-|
①①①① |③-④-|
45
口口口口 |----|
口口口口 |①---|
③③口口 |②---|
①①②② |③---|
46
①①⑥⑤ |①-②-|
口③口口 |③-④-|
口口②口 |--⑤-|
⑤口④④ |--⑥-|
47
口口口口 |----|
⑤口口⑤ |①-②-|
④①口④ |--③-|
③口②③ |④-⑤-|
48
①口④① |①---|
口③口口 |②-③-|
⑥口②⑤ |④-⑤-|
口⑥⑤口 |--⑥-|
49
口①②口 |--①-|
①③口② |--②-|
口⑤④口 |--③-|
口口口口 |④-⑤-|
50
②口口⑤ |①---|
口口①口 |--②-|
口口口口 |--③-|
④口口③ |④-⑤-|
51
①口①口 |----|
口②口② |①---|
③口③口 |②---|
口口口口 |③---|
52
②④④② |①---|
③口口③ |----|
口口口口 |--②-|
口①口① |③-④-|
53
口口口口 |----|
口口口口 |--①-|
口口口口 |----|
口①①口 |----|
54
①①⑥⑤ |①-②-|
口③口口 |③-④-|
口口②口 |--⑤-|
⑤口④④ |--⑥-|
55
口口口口 |----|
⑤口口⑤ |①-②-|
④①口④ |--③-|
③口②③ |④-⑤-|
56
①口口① |①---|
口③口口 |②-③-|
⑤口②④ |--④-|
口⑤④口 |--⑤-|
57
口①②口 |--①-|
①③口② |--②-|
口⑤④口 |--③-|
口口口口 |④-⑤-|
58
②口口⑤ |①---|
口口①口 |②-③-|
口口口口 |--④-|
④口口③ |--⑤-|
59
①口①口 |----|
口②口② |----|
口口口口 |①---|
口口口口 |②---|
60
口③③口 |①---|
②口口② |----|
口口口口 |----|
①①①① |②-③-|
61
口①口口 |----|
口口口口 |----|
口口口口 |----|
口口口口 |①---|
62
口口①口 |①---|
口口口② |----|
口口口③ |--②-|
口口口④ |③-④-|
63
④口口口 |----|
③口口口 |--①-|
②口口口 |--②-|
①①口口 |③-④-|
64
口①②② |①---|
口口口③ |--②-|
口口口④ |--③-|
口口口⑤ |④-⑤-|
65
口口口口 |①---|
③口口口 |--②-|
口①①口 |----|
②口口口 |③---|
66
口②②口 |①---|
口口口口 |--②-|
口①①口 |----|
口口口口 |----|
67
口口口口 |----|
口口口① |----|
口口口口 |①--②|
口③口② |--③-|
68
口口②② |--①-|
①①口口 |----|
口口口口 |----|
口口口口 |--②-|
69
口口口口 |----|
口口口口 |----|
口口口① |①---|
口口口② |②---|
70
口口口口 |①---|
口口口口 |②---|
口口口口 |----|
口②①口 |----|
71
口口口口 |--①-|
口口口口 |----|
口口口口 |----|
①口口口 |----|
72
②口③口 |①-②-|
①口口④ |--③-|
口口口口 |----|
口口口口 |④---|
73
口口口口 |①-②-|
口口口口 |③-④-|
口口口口
④③②①

BPM: 165
口口口口
⑥口口口
⑤口口口 |⑤-⑥-|
口口口口

BPM: 156-80
⑦⑧口口
口口口口
口口口口
口口口口 |⑦-⑧-|
74
口口①① |①---|
口口口口 |----|
口口口口 |----|
口口口口 |----|

不确定度: 0

最終更新:2012年11月10日 15:18