パンダヒーロー
ハチ

BASIC

Level: 4
BPM: 190
Notes: 249

1
口口口口 |----|
口口口口 |----|
口口口口 |----|
口口口口 |----|
2
口口口口 |----|
口口口口 |----|
口口口口 |----|
口口口口 |----|
3
口口口口 |----|
口口口口 |----|
口口口口 |----|
口口口口 |----|
4
口口口口 |----|
口口口口 |----|
口口口口 |----|
口口口口 |----|
5
口口口口 |----|
口口口口 |----|
口口口口 |----|
口口口口 |----|
6
口口口口 |①---|
口口口口 |----|
口①口口 |----|
口口口口 |----|
7
口口口口 |①---|
口②②口 |----|
口口①口 |②---|
口口口口 |----|
8
口口口口 |①---|
口口口口 |----|
口口①口 |----|
口口口口 |----|
9
口口口口 |①---|
口口口口 |----|
口①口口 |②---|
口②②口 |----|
10
口口口口 |①---|
口口口口 |----|
口①口口 |----|
口口口口 |----|
11
口口口口 |①---|
口②②口 |----|
口口①口 |②---|
口口口口 |----|
12
口口口口 |①---|
口口口口 |----|
口口①口 |----|
口口口口 |----|
13
口口口口 |①---|
②口口② |----|
口①口口 |②---|
口口口口 |----|
14
口①②口 |①---|
口口口口 |----|
口口口口 |②---|
口口口口 |----|
15
口口口口 |①---|
口②①口 |----|
口口口口 |②---|
口口口口 |----|
16
口口口口 |①---|
口口口口 |----|
口①②口 |②---|
口口口口 |----|
17
口口口口 |①---|
口口口口 |----|
口口口口 |②---|
口②①口 |----|
18
口口口口 |①---|
口口口口 |----|
口①①口 |----|
口口口口 |----|
19
口口口口 |①---|
①口口① |----|
②口口② |②---|
口口口口 |----|
20
口口②口 |①---|
口①口口 |----|
口口口口 |②---|
口口口口 |----|
21
口①口口 |①---|
口口②口 |----|
口口口口 |②---|
口口口口 |----|
22
口②①口 |①---|
口口口口 |----|
口口口口 |②---|
口口口口 |----|
23
口口口口 |①---|
口①②口 |----|
口口口口 |②---|
口口口口 |----|
24
口口口口 |①---|
口口口口 |----|
口②①口 |②---|
口口口口 |----|
25
口口口口 |①---|
口口口口 |----|
口口口口 |②---|
口①②口 |----|
26
口口口口 |①---|
口口口口 |----|
口①①口 |----|
口口口口 |----|
27
口口口口 |①---|
①口口① |----|
②口口② |②---|
口口口口 |----|
28
口②口口 |①---|
口口①口 |----|
口口口口 |②---|
口口口口 |----|
29
②口口② |①---|
口①①口 |----|
口口口口 |②---|
口口口口 |----|
30
口口口口 |①---|
口口口口 |----|
口①口口 |----|
口口口口 |----|
31
口口口口 |①---|
口②②口 |----|
口口①口 |②---|
口口口口 |----|
32
口口口口 |①---|
口口口口 |----|
口口①口 |----|
口口口口 |----|
33
口口口口 |①---|
口口口口 |----|
口①口口 |②---|
口②②口 |----|
34
口口口口 |①---|
口口口口 |----|
口①口口 |----|
口口口口 |----|
35
口口口口 |①---|
口②②口 |----|
口口①口 |②---|
口口口口 |----|
36
口口口口 |①---|
口口口口 |----|
口口①口 |----|
口口口口 |----|
37
口口口口 |①---|
②口口② |----|
口①口口 |②---|
口口口口 |----|
38
口①口口 |①---|
口口②口 |----|
口口口口 |②---|
口口口口 |----|
39
口口口口 |①---|
②口口② |----|
口①口口 |②---|
口口口口 |----|
40
口口①口 |①---|
口②口口 |----|
口口口口 |②---|
口口口口 |----|
41
口口口口 |①---|
口口口口 |----|
口口①口 |②---|
②口口② |----|
42
口口口口 |①---|
口口口口 |----|
口①①口 |----|
口口口口 |----|
43
口口口口 |①---|
①口口① |----|
②口口② |②---|
口口口口 |----|
44
口口②口 |①---|
口①口口 |----|
口口口口 |②---|
口口口口 |----|
45
口①口口 |①---|
口口②口 |----|
口口口口 |②---|
口口口口 |----|
46
口口①口 |①---|
口②口口 |----|
口口口口 |②---|
口口口口 |----|
47
口口口口 |①---|
②口口② |----|
口口①口 |②---|
口口口口 |----|
48
口①口口 |①---|
口口②口 |----|
口口口口 |②---|
口口口口 |----|
49
口口口口 |①---|
口口口口 |----|
口①口口 |②---|
②口口② |----|
50
口口口口 |①---|
口口口口 |----|
口①①口 |----|
口口口口 |----|
51
口口口口 |①---|
①口口① |----|
②口口② |②---|
口口口口 |----|
52
口②口口 |①---|
口口①口 |----|
口口口口 |②---|
口口口口 |----|
53
②口口② |①---|
口①①口 |----|
口口口口 |②---|
口口口口 |----|
54
②②口口 |①---|
①①口口 |----|
口口口口 |②---|
口口口口 |----|
55
口口②② |①---|
口口①① |----|
口口口口 |②---|
口口口口 |----|
56
口口口口 |①---|
口口②① |②---|
口④③口 |③---|
口口口口 |④---|
57
口口口口 |①---|
②①口口 |②---|
③口口③ |③---|
口口口口 |----|
58
口口②② |①---|
口口①① |----|
口口口口 |②---|
口口口口 |----|
59
②②口口 |①---|
①①口口 |----|
口口口口 |②---|
口口口口 |----|
60
口口口口 |①---|
①②口口 |②---|
口③④口 |③---|
口口口口 |④---|
61
口口口口 |①---|
口口①② |②---|
③口口③ |③---|
口口口口 |----|
62
②②口口 |①---|
①①口口 |----|
口口口口 |②---|
口口口口 |----|
63
口口②② |①---|
口口①① |----|
口口口口 |②---|
口口口口 |----|
64
口口口口 |①---|
口口②① |②---|
口④③口 |③---|
口口口口 |④---|
65
口口口口 |①---|
②①口口 |②---|
③口口③ |③---|
口口口口 |----|
66
口口②② |①---|
口口①① |----|
口口口口 |②---|
口口口口 |----|
67
②②口口 |①---|
①①口口 |----|
口口口口 |②---|
口口口口 |----|
68
口口口口 |①---|
①②口口 |②---|
口③④口 |③---|
口口口口 |④---|
69
③口口③ |①---|
口口①② |②---|
口口口口 |③---|
口口口口 |----|
70
口口口口 |①---|
①①②② |----|
口口口口 |②---|
口口口口 |----|
71
口口口口 |①---|
口口口口 |----|
②②①① |②---|
口口口口 |----|
72
口口口口 |①---|
①①②② |----|
口口口口 |②---|
口口口口 |----|
73
①①①① |①---|
口口口口 |----|
口口口口 |----|
口口口口 |----|
74
口口口口 |①---|
口①口口 |----|
②口口口 |②---|
口口口口 |----|
75
②口口② |①---|
口①①口 |----|
口口口口 |②---|
口口口口 |----|
76
口口口口 |①---|
口口①口 |----|
口口口② |②---|
口口口口 |----|
77
②口口② |①---|
口①①口 |----|
口口口口 |②---|
口口口口 |----|
78
口口口口 |①---|
口①口口 |----|
②口口口 |②---|
口口口口 |----|
79
②口口② |①---|
口①①口 |----|
口口口口 |②---|
口口口口 |----|
80
口口口口 |①---|
口口①口 |----|
口口口② |②---|
口口口口 |----|
81
②口口② |①---|
口①①口 |----|
口口口口 |②---|
口口口口 |----|
82
口口口口 |①---|
口①口口 |----|
②口口口 |②---|
口口口口 |----|
83
②口口② |①---|
口①①口 |----|
口口口口 |②---|
口口口口 |----|
84
口口口口 |①---|
口①①口 |----|
口②②口 |②---|
口口口口 |----|
85
②②②② |①---|
①口口① |----|
口口口口 |②---|
口口口口 |----|
86
口口口口 |①---|
口口口① |----|
口口口口 |----|
口口口口 |----|
87
口②②口 |①---|
口口①口 |----|
口口口口 |②---|
口口口口 |----|
88
口口口口 |①---|
①口口口 |----|
口口口口 |----|
口口口口 |----|
89
口②②口 |①---|
口①口口 |----|
口口口口 |②---|
口口口口 |----|
90
口口口口 |①---|
口口口① |----|
口口口口 |----|
口口口口 |----|
91
口②②口 |①---|
口口①口 |----|
口口口口 |②---|
口口口口 |----|
92
口口口口 |①---|
①口口口 |----|
口口口口 |----|
口口口口 |----|
93
口②②口 |①---|
口①口口 |----|
口口口口 |②---|
口口口口 |----|
94
口口口口 |①---|
口口口① |----|
口口口口 |----|
口口口口 |----|

不確定度: 0

最終更新:2017年03月04日 23:58