パンダヒーロー
ハチ

ADVANCED

Level: 7
BPM: 190
Notes: 490

1
口口口口 |----|
口口口口 |----|
口口口口 |----|
口口口口 |----|
2
口口口口 |----|
口口口口 |----|
口口口口 |----|
口口口口 |----|
3
口口口口 |----|
口口口口 |----|
口口口口 |----|
口口口口 |----|
4
口口口口 |----|
口口口口 |----|
口口口口 |----|
口口口口 |----|
5
口口口口 |----|
口口口口 |----|
口口口口 |----|
口口口口 |----|
6
口口①口 |①---|
②口③口 |②---|
④口口口 |③---|
口口口口 |④---|
7
口口口口 |①---|
口③③口 |②---|
口口①口 |③---|
②口口口 |----|
8
口①口口 |①---|
口③口② |②---|
口口口④ |③---|
口口口口 |④---|
9
口口口口 |①---|
口③③口 |②---|
口①口口 |③---|
口口口② |----|
10
口口①口 |①---|
②口③口 |②---|
④口口口 |③---|
口口口口 |④---|
11
口口口口 |①---|
口③③口 |②---|
口口①口 |③---|
②口口口 |----|
12
口①口口 |①---|
口③口② |②---|
口口口④ |③---|
口口口口 |④---|
13
③口口③ |①---|
口④②口 |②---|
①口口口 |③---|
口口口口 |--④-|
14
口口口口 |--①-|
口口口口 |--②-|
③口口⑤ |③---|
口②④① |④-⑤-|
15
③口口④ |--①-|
①口⑤② |②-③-|
口口口口 |④---|
口口口口 |--⑤-|
16
口⑥口口 |--①-|
⑤口口口 |②-③-|
口②③口 |④---|
①口口④ |⑤-⑥-|
17
口口②口 |--①-|
口③口① |②-③-|
口口④口 |④---|
口口口口 |----|
18
口口④④ |①---|
③口口口 |②---|
口口口② |③---|
①①口口 |④---|
19
①①口口 |①---|
口口口② |②---|
③口口口 |③---|
口口④④ |④---|
20
②③口④ |①---|
口口口⑤ |--②-|
口①①口 |③---|
口口口口 |④-⑤-|
21
口口口口 |①-②-|
口⑥①口 |③-④-|
口③②口 |⑤---|
⑤④口口 |--⑥-|
22
口口口口 |--①-|
口口口口 |②-③-|
口③②⑦ |④-⑤-|
④⑤⑥① |⑥-⑦-|
23
③口口④ |--①-|
①口⑤② |②-③-|
口口口口 |④---|
口口口口 |--⑤-|
24
口口口口 |--①-|
口口口口 |②-③-|
⑦②③口 |④-⑤-|
①⑥⑤④ |⑥-⑦-|
25
口口②口 |--①-|
口口口① |②---|
口③③口 |③---|
口口口口 |----|
26
④④口口 |①---|
口口口③ |②---|
②口口口 |③---|
口口①① |④---|
27
口口①① |①---|
②口口口 |②---|
口口口③ |③---|
④④口口 |④---|
28
口口口② |①---|
口口口口 |--②-|
口①①口
口口口口

口口③口
口⑤④口
口⑥口口 |③-④-|
口口口口 |⑤-⑥-|
29
②③口② |①---|
口口③口 |②---|
口④口口 |③---|
①口④① |④---|
30
口口①口 |①---|
②口③口 |②---|
④口口口 |③---|
口口口口 |④---|
31
口口口口 |①---|
口③③口 |②---|
口口①口 |③---|
②口口口 |----|
32
口①口口 |①---|
口③口② |②---|
口口口④ |③---|
口口口口 |④---|
33
口口口口 |①---|
口③③口 |②---|
口①口口 |③---|
口口口② |----|
34
口口①口 |①---|
②口③口 |②---|
④口口口 |③---|
口口口口 |④---|
35
口口口口 |①---|
口③③口 |②---|
口口①口 |③---|
②口口口 |----|
36
口①口口 |①---|
口③口② |②---|
口口口④ |③---|
口口口口 |④---|
37
③口口③ |①---|
口④②口 |②---|
①口口口 |③---|
口口口口 |--④-|
38
口口口口 |--①-|
口口口口 |②-③-|
口③②⑥ |④---|
④口⑤① |⑤-⑥-|
39
③口口④ |--①-|
①口⑤② |②-③-|
口口口口 |④---|
口口口口 |--⑤-|
40
口口口口 |--①-|
口口口口 |②-③-|
⑦②③口 |④-⑤-|
①⑥⑤④ |⑥-⑦-|
41
口口②口 |--①-|
口口口① |②---|
口③③口 |③---|
口口口口 |----|
42
口口④④ |①---|
③口口口 |②---|
口口口② |③---|
①①口口 |④---|
43
①①口口 |①---|
口口口② |②---|
③口口口 |③---|
口口④④ |④---|
44
②③④⑤ |①---|
口口口⑥ |--②-|
口①①口 |③-④-|
口口口口 |⑤-⑥-|
45
口口口口 |①-②-|
口⑥①口 |③-④-|
口③②口 |⑤---|
⑤④口口 |--⑥-|
46
口口口口 |--①-|
口口口口 |②-③-|
口③②⑦ |④-⑤-|
④⑤⑥① |⑥-⑦-|
47
③口口④ |--①-|
①口⑤② |②-③-|
口口口口 |④---|
口口口口 |--⑤-|
48
口口口口 |--①-|
口口口口 |②-③-|
⑦②③口 |④-⑤-|
①⑥⑤④ |⑥-⑦-|
49
口口②口 |--①-|
口③口① |②-③-|
口口④口 |④---|
口口口口 |----|
50
④④口口 |①---|
口口口③ |②---|
②口口口 |③---|
口口①① |④---|
51
口口①① |①---|
②口口口 |②---|
口口口③ |③---|
④④口口 |④---|
52
②口口口 |①---|
口口口口 |--②-|
口①①口
口口口口

口③口口
口④⑤口
口口⑥口 |③-④-|
口口口口 |⑤-⑥-|
53
②口口② |①---|
口口口口 |②---|
③口口③ |③---|
①③③① |----|
54
口口口口 |①---|
①口口② |②---|
口①②口
口口口口

口口③口
④③口口
④口口口 |③---|
口口口口 |--④-|
55
②②②② |----|
口口口① |①---|
口口口① |②---|
口口口口 |----|
56
口口口口 |--①-|
①口口② |②-③-|
③⑦口④ |④-⑤-|
口⑤⑥口 |⑥-⑦-|
57
口口口口 |①-②-|
口②③口 |③---|
④口①④ |④---|
④口口④ |----|
58
口口口口 |①---|
②口口① |②---|
口②①口
口口口口

口③口口
口口③④
口口口④ |③---|
口口口口 |--④-|
59
②②②② |----|
①口口口 |①---|
①口口口 |②---|
口口口口 |----|
60
口口口口 |--①-|
②口口① |②-③-|
④口口③ |④-⑤-|
口⑥⑤口 |⑥---|
61
②口口② |①---|
口口①口 |②---|
③①口③ |③---|
③口口③ |----|
62
口口口口 |①---|
①口口② |②---|
口①②口
口口口口

口口③口
④③口口
④口口口 |③---|
口口口口 |--④-|
63
②②②② |----|
口口口① |①---|
口口口① |②---|
口口口口 |----|
64
⑤口口口 |--①-|
①⑥口② |②-③-|
③口口④ |④---|
口口口口 |⑤-⑥-|
65
口口口① |--①-|
口口②口 |②---|
③口口③ |③---|
③口口③ |----|
66
口口口口 |①---|
②口口① |②---|
口②①口
口口口口

口③口口
口口③④
口口口④ |③---|
口口口口 |--④-|
67
②②②② |----|
①口口口 |①---|
①口口口 |②---|
口口口口 |----|
68
口口口口 |--①-|
②口口① |②-③-|
④口⑦③ |④-⑤-|
口⑥⑤口 |⑥-⑦-|
69
③口口③ |①---|
口口口口 |②---|
④①口④ |③---|
②④④② |④---|
70
口③③口 |----|
②②口口 |①---|
口①①口 |②---|
口口口口 |③---|
71
口④④口 |①---|
③③①① |②---|
口②②口 |③---|
口口口口 |④---|
72
口口口口 |①---|
④口口③ |②---|
②④③① |③---|
口②①口 |④---|
73
①①①① |①---|
口口口口 |----|
口口口口 |----|
口口口口 |----|
74
①口口② |①---|
③口口④ |②---|
口口口口 |③---|
口口口口 |④---|
75
口④口口 |①-②-|
口口④口 |③---|
口口口口 |④---|
口①②③ |----|
76
②口口① |①---|
④口口③ |②---|
口口口口 |③---|
口口口口 |④---|
77
口口④口 |①-②-|
口④口口 |③---|
口口口口 |④---|
③②①口 |----|
78
①口口② |①---|
③口口④ |②---|
口口口口 |③---|
口口口口 |④---|
79
口④口口 |①-②-|
口口④口 |③---|
口口口口 |④---|
口①②③ |----|
80
②口口① |①---|
④口口③ |②---|
口口口口 |③---|
口口口口 |④---|
81
口口④口 |①-②-|
口④口口 |③---|
口口口口 |④---|
③②①口 |----|
82
①口口② |①---|
③口口④ |②---|
口口口口 |③---|
口口口口 |④---|
83
口④口口 |①-②-|
口口④口 |③---|
口口口口 |④---|
口①②③ |----|
84
口口口口 |--①-|
①口口② |②-③-|
③⑦口④ |④-⑤-|
口⑤⑥口 |⑥-⑦-|
85
③口口③ |①---|
口口口口 |②---|
④口①④ |③---|
②④④② |④---|
86
口①口口 |①---|
①口口口 |----|
口口②口 |②---|
口口口② |----|
87
口口②口 |①---|
口口口② |----|
口①口口 |②---|
①口口口 |----|
88
口①口口 |①---|
①口口口 |----|
口口②口 |②---|
口口口② |----|
89
口口②口 |①---|
口口口② |----|
口①口口 |②---|
①口口口 |----|
90
口①口口 |①---|
①口口口 |----|
口口②口 |②---|
口口口② |----|
91
口口②口 |①---|
口口口② |----|
口①口口 |②---|
①口口口 |----|
92
口①口口 |①---|
①口口口 |----|
口口②口 |②---|
口口口② |----|
93
口口②口 |①---|
口口口② |----|
口①口口 |②---|
①口口口 |----|
94
口①口口 |①---|
①口口口 |----|
口口口口 |----|
口口口口 |----|

不確定度: 0

最終更新:2017年03月04日 23:58