パンダヒーロー
ハチ

EXTREME

Level: 9
BPM: 190
Notes: 826

1
口口口口 |----|
口口口口 |----|
口口口口 |----|
口口口口 |----|
2
①口口④ |①-②-|
②口口⑤ |③---|
③口口⑥ |④-⑤-|
口口口口 |⑥---|
3
口口口口 |①-②-|
口⑦口口 |③-④-|
口⑥⑤口 |⑤-⑥-|
①②③④ |⑦---|
4
④口口① |①-②-|
⑤口口② |③---|
⑥口口③ |④-⑤-|
口口口口 |⑥---|
5
口口口口 |①-②-|
⑦口口⑦ |③-④-|
口⑤⑥口 |⑤-⑥-|
④③②① |⑦---|
6
①口④① |①---|
口②③口 |②-③-|
①口⑥① |④---|
口口口⑤ |⑤-⑥-|
7
口口⑦口 |--①-|
口口口口 |②-③-|
①⑤⑥④ |④--⑤|
口②③口 |⑥-⑦-|
8
①④口① |①---|
口③②口 |②-③-|
口⑥口口 |④---|
⑤口口口 |⑤-⑥-|
9
口⑦口口 |--①-|
口口口口 |②-③-|
④⑥⑤① |④--⑤|
口③②口 |⑥-⑦-|
10
①口④① |①---|
口②③口 |②-③-|
口口⑥口 |④---|
口口口⑤ |⑤-⑥-|
11
口口⑦口 |--①-|
口口口口 |②-③-|
①⑤⑥④ |④--⑤|
口②③口 |⑥-⑦-|
12
①④口① |①---|
口③②口 |②-③-|
口⑥口口 |④---|
⑤口口口 |⑤-⑥-|
13
⑦⑥⑤⑦ |--①-|
⑥④口⑤ |②-③-|
④口口① |④-⑤-|
口③②口 |⑥-⑦-|
14
口口③口 |--①-|
口口口③ |--②-|
④①②⑤ |③---|
②④⑤① |④-⑤-|
15
①⑤口④ |--①-|
⑤①④口 |②-③-|
口②③口 |④---|
②口口③ |--⑤-|
16
⑤⑥⑥⑤ |--①-|
口口口口 |②-③-|
②④③① |④---|
④②①③ |⑤-⑥-|
17
口口口口 |--①-|
②口口③ |②-③-|
②④④③ |④---|
④①①④ |----|
18
⑥⑦⑧口 |①-②-|
⑤口口⑤ |③-④-|
②口口④ |⑤-⑥⑦|
⑨①③⑨ |⑧-⑨-|
19
口口口③ |①---|
口①④口 |②-③-|
②⑤①口 |④-⑤-|
⑥②口口 |⑥---|
20
口⑤④口 |①---|
③①口③ |--②-|
②口①② |③---|
口③③口 |④-⑤-|
21
⑥口口⑥ |①-②-|
⑤②①⑤ |③-④-|
⑤④③⑤ |⑤---|
口口口口 |--⑥-|
22
⑦⑥⑤⑦ |--①-|
⑥④③⑤ |②-③-|
④②①③ |④-⑤-|
②口口① |⑥-⑦-|
23
⑤口口⑤ |--①-|
口④④口 |②-③-|
口①②口 |④---|
③①②③ |--⑤-|
24
口⑤⑦⑦ |--①-|
③口口② |②-③-|
①口口④ |④-⑤-|
⑦⑦⑥口 |⑥-⑦-|
25
③口口口 |--①-|
口口②③ |②---|
③①口口 |③---|
口口口③ |----|
26
口⑧⑦⑥ |①-②-|
⑤口口⑤ |③-④-|
④口口② |⑤-⑥⑦|
⑨③①⑨ |⑧-⑨-|
27
口口⑥口 |①---|
口⑥①口 |②-③-|
⑤①口② |④-⑤-|
口④③口 |⑥---|
28
②口口① |①---|
②④③① |--②-|
口⑥⑤口 |③-④-|
口口口口 |⑤-⑥-|
29
口③①① |①---|
③③口① |②---|
②口④④ |③---|
②②④口 |④---|
30
①④口① |①---|
口③②口 |②-③-|
口⑥口口 |④---|
⑤口口口 |⑤-⑥-|
31
口⑦口口 |--①-|
口口口口 |②-③-|
④⑥⑤① |④--⑤|
口③②口 |⑥-⑦-|
32
①口④① |①---|
口②③口 |②-③-|
口口⑥口 |④---|
口口口⑤ |⑤-⑥-|
33
口口⑦口 |--①-|
口口口口 |②-③-|
①⑤⑥④ |④--⑤|
口②③口 |⑥-⑦-|
34
①④口① |①---|
口③②口 |②-③-|
口⑥口口 |④---|
⑤口口口 |⑤-⑥-|
35
口⑦口口 |--①-|
口口口口 |②-③-|
④⑥⑤① |④--⑤|
口③②口 |⑥-⑦-|
36
①口④① |①---|
口②③口 |②-③-|
口口⑥口 |④---|
口口口⑤ |⑤-⑥-|
37
⑦⑤⑥⑦ |--①-|
⑤口④⑥ |②-③-|
①口口④ |④-⑤-|
口②③口 |⑥-⑦-|
38
口④口口 |--①-|
④口口口 |②-③-|
⑥③②⑤ |④---|
①⑥⑤① |⑤-⑥-|
39
①口⑤② |--①-|
口③④⑤ |②-③-|
口④③口 |④---|
②口口① |--⑤-|
40
⑦⑧⑧⑥ |--①②|
口⑦⑥口 |③-④-|
①④⑤口 |⑤-⑥-|
④②③⑤ |⑦-⑧-|
41
口口口口 |--①-|
②口口① |②---|
口③③口 |③---|
③②①③ |----|
42
①⑤⑥① |①---|
④口口④ |②-③-|
②⑦⑧③ |④-⑤⑥|
口②③口 |--⑦⑧|
43
②口口① |①---|
口②①口 |②-③-|
④口口③ |④-⑤-|
⑥口口⑤ |⑥---|
44
②④③① |①---|
②⑥⑤① |--②-|
口口口口 |③-④-|
口口口口 |⑤-⑥-|
45
⑥口口⑥ |①-②-|
⑤口口⑤ |③-④-|
⑤②①⑤ |⑤---|
口④③口 |--⑥-|
46
⑦⑤⑥⑦ |--①-|
⑤③④⑥ |②-③-|
③①②④ |④-⑤-|
①口口② |⑥-⑦-|
47
⑤口口⑤ |--①-|
口④④口 |②-③-|
口②①口 |④---|
③②①③ |--⑤-|
48
口⑤⑦口 |--①②|
⑤口口⑦ |③-④-|
口口①⑥ |⑤---|
③②⑥④ |⑥-⑦-|
49
④口口④ |--①-|
口③②口 |②-③-|
①④④口 |④---|
口①口口 |----|
50
口⑥⑦口 |①-②-|
⑤口口⑤ |③-④-|
②口口④ |⑤-⑥⑦|
⑧①③⑧ |--⑧-|
51
①口口② |①-②-|
⑤①②⑤ |③-④-|
③口口④ |⑤---|
⑥③④⑥ |⑥---|
52
①③④② |①---|
口⑤⑥口 |--②-|
口②①口 |③-④-|
口口口口 |⑤-⑥-|
53
③口口④ |①-②-|
①口口② |③---|
⑤④③⑤ |④---|
①③④② |⑤---|
54
口①②口 |①---|
①口口② |②---|
口口口口
②口口①

③⑤口④
⑤④③口
口③④⑤ |③--④|
口口⑤口 |--⑤-|
55
口口④口 |--①-|
口口③④ |②-③-|
④③口口 |④---|
①④口② |----|
56
①②⑤⑥ |--①-|
①②⑤⑥ |②-③-|
⑦④③口 |④-⑤-|
口④③口 |⑥-⑦-|
57
口口口口 |①-②-|
口④④口 |③---|
口④④① |④---|
②口口③ |----|
58
口②①口 |①---|
②口口① |②---|
口口口口
①口口②

④口⑤③
口③④⑤
⑤④③口 |③--④|
口⑤口口 |--⑤-|
59
口④口口 |--①-|
④③口口 |②-③-|
口口③④ |④---|
②口④① |----|
60
⑥⑥①① |--①-|
⑤⑤②② |②-③-|
口③④口 |④-⑤-|
口③④口 |⑥---|
61
口口②口 |①---|
口口②② |②---|
③③口口 |③---|
①③口① |----|
62
口①②口 |①---|
①口口② |②---|
口口口口
②口口①

③⑤口④
⑤④③口
口③④⑤ |③--④|
口口⑤口 |--⑤-|
63
口口④口 |--①-|
口口③④ |②-③-|
④③口口 |④---|
①④口② |----|
64
①②④③ |--①-|
①②④③ |②-③-|
口⑥⑤口 |④---|
⑤口口⑥ |⑤-⑥-|
65
③口口③ |--①-|
口③③口 |②---|
③口口③ |③---|
口①②口 |----|
66
口②①口 |①---|
②口口① |②---|
口口口口
①口口②

④口⑤③
口③④⑤
⑤④③口 |③--④|
口⑤口口 |--⑤-|
67
口④口口 |--①-|
④③口口 |②-③-|
口口③④ |④---|
②口④① |----|
68
④口口① |--①-|
④⑤②① |②-③-|
口③⑥口 |④-⑤-|
口口口⑦ |⑥-⑦-|
69
③②③② |①---|
③口口② |②---|
①口口④ |③---|
①④①④ |④---|
70
②①②① |----|
口③口口 |①---|
口①②口 |②---|
口③口③ |③---|
71
口②③② |①---|
口④①④ |②---|
③②③口 |③---|
①④①口 |④---|
72
口②④口 |①---|
口④②口 |②---|
④口口② |③---|
①口口③ |④---|
73
①口口① |①---|
口口口口 |----|
口①①口 |----|
口口口口 |----|
74
口①②口 |①---|
①口口② |②---|
④口口③ |③---|
口④③口 |④---|
75
口口口④ |①-②-|
口③口口 |③---|
口②①口 |④---|
口口口④ |----|
76
口②①口 |①---|
②口口① |②---|
③口口④ |③---|
口③④口 |④---|
77
④口口口 |①-②-|
口口③口 |③---|
口①②口 |④---|
④口口口 |----|
78
口①②口 |①---|
①口口② |②---|
④口口③ |③---|
口④③口 |④---|
79
口口口④ |①-②-|
口③口口 |③---|
口②①口 |④---|
口口口④ |----|
80
口②①口 |①---|
②口口① |②---|
③口口④ |③---|
口③④口 |④---|
81
④口口口 |①-②-|
口口③口 |③---|
口①②口 |④---|
④口口口 |----|
82
口①②口 |①---|
①口口② |②---|
④口口③ |③---|
口④③口 |④---|
83
口口口④ |①-②-|
口③口口 |③---|
口②①口 |④---|
口口口④ |----|
84
①口口④ |--①-|
①②⑤④ |②-③-|
口⑥③口 |④-⑤-|
⑦口口口 |⑥-⑦-|
85
②③②③ |①---|
②口口③ |②---|
④口口① |③---|
④①④① |④---|
86
口口③口 |①---|
⑤①口④ |②---|
口口③口 |③--④|
口①口② |--⑤-|
87
口口④口 |--①-|
口③口⑤ |②-③-|
②口⑥口 |④-⑤-|
口①口⑦ |⑥-⑦-|
88
口③口口 |①---|
④口①⑤ |②---|
口③口口 |③--④|
②口①口 |--⑤-|
89
口④口口 |--①-|
⑤口③口 |②-③-|
口⑥口② |④-⑤-|
⑦口①口 |⑥-⑦-|
90
口口③口 |①---|
⑤①口④ |②---|
口口③口 |③--④|
口①口② |--⑤-|
91
口口④口 |--①-|
口③口⑤ |②-③-|
②口⑥口 |④-⑤-|
口①口⑦ |⑥-⑦-|
92
口③口口 |①---|
④口①⑤ |②---|
口③口口 |③--④|
②口①口 |--⑤-|
93
口④口口 |--①-|
⑤口③口 |②-③-|
口⑥口② |④-⑤-|
⑦口①口 |⑥-⑦-|
94
口口口口 |①---|
口①口口 |----|
口口口口 |----|
口①口口 |----|

不確定度: 0

最終更新:2017年03月04日 23:58