マトリョシカ
ハチ

BASIC

Level: 3
BPM: 205-296
Notes: 147

BPM: 205
1
口口口口 |----|
口口口口 |----|
口口口口 |----|
口口口口 |----|
2
口口口口 |----|
口口口口 |----|
口口口口 |----|
口口口口 |----|
3
口口口口 |----|
口口口口 |----|
口口口口 |----|
口口口口 |----|
4
口口口口 |----|
口口口口 |----|
口口口口 |----|
口口口口 |----|
5
口口口口 |----|
口口口口 |----|
口口口口 |----|
口口口口 |----|
6
口口口口 |①---|
口口口口 |----|
①口口口 |----|
口口口口 |----|
7
口口口口 |①---|
口①口口 |----|
口口口口 |----|
口口口口 |----|
8
口口口口 |①---|
口口口口 |----|
口口①口 |----|
口口口口 |----|
9
口口口口 |①---|
口口口① |----|
口口口口 |----|
口口口口 |----|
10
口口口口 |①---|
口口口口 |----|
口口口① |----|
口口口口 |----|
11
口口口口 |①---|
口口①口 |----|
口口口口 |----|
口口口口 |----|
12
口口口口 |①---|
口口口口 |----|
口①口口 |----|
口口口口 |----|
13
口口口口 |①---|
①口口口 |----|
口口口口 |----|
口口口口 |----|
14
口口口口 |①---|
口口口口 |----|
口①①口 |----|
口口口口 |----|
15
口口口口 |①---|
口②①口 |----|
口口口口 |②---|
口口口口 |----|
16
口口口口 |①---|
口口口口 |----|
①②口口 |②---|
口口口口 |----|
17
口口口口 |①---|
口口口口 |----|
口口①② |②---|
口口口口 |----|
18
口口口口 |①---|
口①①口 |----|
口口口口 |----|
口口口口 |----|
19
口②①口 |①---|
口口口口 |----|
口口口口 |②---|
口口口口 |----|
20
口口口口 |①---|
①②口口 |----|
口口口口 |②---|
口口口口 |----|
21
口口口口 |①---|
口口①② |----|
口口口口 |②---|
口口口口 |----|
22
口①①口 |①---|
口口口口 |----|
口口口口 |----|
口口口口 |----|
23
口口口口 |----|
口口口口 |----|
口口口口 |----|
口口口口 |----|
24
口口口口 |----|
口口口口 |----|
口口口口 |----|
口口口口 |----|
25
口口口口 |----|
口口口口 |----|
口口口口 |----|
口口口口 |----|
26
口口口口 |①---|
口口口口 |----|
口①①口 |----|
口口口口 |----|
27
口口口口 |①---|
口①②口 |----|
口口口口 |②---|
口口口口 |----|
28
口口口口 |①---|
口口口口 |----|
口口②① |②---|
口口口口 |----|
29
口口口口 |①---|
口口口口 |----|
②①口口 |②---|
口口口口 |----|
30
口口口口 |①---|
口①①口 |----|
口口口口 |----|
口口口口 |----|
31
口①②口 |①---|
口口口口 |----|
口口口口 |②---|
口口口口 |----|
32
口口口口 |①---|
口口②① |----|
口口口口 |②---|
口口口口 |----|
33
口口口口 |①---|
②①口口 |----|
口口口口 |②---|
口口口口 |----|
34
口①①口 |①---|
口口口口 |----|
口口口口 |----|
口口口口 |----|
35
口口口口 |①---|
口①口口 |----|
口口②口 |②---|
口口口口 |----|
36
口口口口 |①---|
口口口口 |----|
口②口口 |②---|
口①口口 |----|
37
口口口口 |①---|
口口②口 |----|
口口①口 |②---|
口口口口 |----|
38
口①①口 |①---|
口口口口 |----|
口口口口 |----|
口口口口 |----|
39
口口口口 |①---|
口口①口 |----|
口②口口 |②---|
口口口口 |----|
40
口口口口 |①---|
口口②口 |----|
口口①口 |②---|
口口口口 |----|
41
口口口口 |①---|
口口口口 |----|
口①①口 |----|
口口口口 |----|
42
口口口口 |①---|
口口口口 |----|
口口②口 |②---|
口口口① |----|
43
口②②口 |①---|
口①口口 |----|
口口口口 |②---|
口口口口 |----|
44
口口口口 |①---|
口口口① |----|
口口②口 |②---|
口口口口 |----|
45
口口口口 |①---|
口①口口 |----|
②口口口 |②---|
口口口口 |----|
46
口口口口 |①---|
口口口口 |----|
口②口口 |②---|
①口口口 |----|
47
口②②口 |①---|
口口①口 |----|
口口口口 |②---|
口口口口 |----|
48
口口口口 |①---|
①口口口 |----|
口②口口 |②---|
口口口口 |----|
49
口口口口 |①---|
口口①口 |----|
口口口② |②---|
口口口口 |----|
50
口口口口 |①---|
口口口口 |----|
口口②口 |②---|
口口口① |----|
51
口②②口 |①---|
口①口口 |----|
口口口口 |②---|
口口口口 |----|
52
口口口口 |①---|
口口口① |----|
口口②口 |②---|
口口口口 |----|
53
口口口口 |①---|
口①口口 |----|
②口口口 |②---|
口口口口 |----|
54
口口口口 |①---|
口口口口 |----|
口②口口 |②---|
①口口口 |----|
55
口②②口 |①---|
口口①口 |----|
口口口口 |②---|
口口口口 |----|
56
口口口口 |①---|
①口口口 |----|
口②口口 |②---|
口口口口 |----|
57
②口口② |①---|
口口①口 |----|
口口口口 |②---|
口口口口 |----|
58
口口口口 |①---|
口②口① |----|
口口口口 |②---|
口口口口 |----|
59
口口口口 |①---|
②口①口 |----|
口口口口 |②---|
口口口口 |----|
60
口口口口 |①---|
口口口口 |----|
口①②口 |②---|
口口口口 |----|
61
口口口口 |①---|
口②②口 |----|
口①口口 |②---|
口口口口 |----|
62
口口口口 |①---|
①口②口 |----|
口口口口 |②---|
口口口口 |----|
63
口口口口 |①---|
口①口② |----|
口口口口 |②---|
口口口口 |----|
64
口口口口 |①---|
口口口口 |----|
口②①口 |②---|
口口口口 |----|
65
口口口口 |①---|
口②②口 |----|
口口①口 |②---|
口口口口 |----|

BPM: 208.571
66
口口口口 |①---|
口口口口 |----|
口口①① |----|
口口口口 |----|
67
口口口口 |①---|
口口口口 |----|
①①口口 |----|
口口口口 |----|

BPM: 211.127
68
口口口口 |①---|
口口②口 |----|
口口①口 |②---|
口口口口 |----|
69
口口口口 |①---|
口②口口 |----|
口①口口 |②---|
口口口口 |----|

BPM: 228.674
70
口口口口 |①---|
口口口口 |----|
口口①① |----|
口口口口 |----|
71
口口口口 |①---|
口口口口 |----|
①①口口 |----|
口口口口 |----|

BPM: 238.7
72
口口口口 |①---|
口口②口 |----|
口口①口 |②---|
口口口口 |----|

BPM: 250.869
73
口口口口 |①---|
口②口口 |----|
口①口口 |②---|
口口口口 |----|

BPM: 257.172
74
口口口口 |①---|
口口口口 |----|
口口①① |----|
口口口口 |----|
75
口口口口 |①---|
口口口口 |----|
①①口口 |----|
口口口口 |----|

BPM: 262.178
76
口口口口 |①---|
口口②口 |----|
口口①口 |②---|
口口口口 |----|
77
口口口口 |①---|
口②口口 |----|
口①口口 |②---|
口口口口 |----|

BPM: 276.335
78
口口口口 |①---|
口口口口 |----|
口口①① |----|
口口口口 |----|

BPM: 276.6
79
口口口口 |①---|
口口口口 |----|
①①口口 |----|
口口口口 |----|

BPM: 296
80
口口口口 |①---|
口口②口 |----|
口口①口 |②---|
口口口口 |----|
81
③口口③ |①---|
口②口口 |----|
口①口口 |②---|
口口口口 |③---|

不確定度: 0

最終更新:2017年03月04日 23:58