マトリョシカ
ハチ

ADVANCED

Level: 6
BPM: 205-296
Notes: 294

BPM: 205
1
口口口口 |----|
口口口口 |----|
口口口口 |----|
口口口口 |----|
2
口口口口 |----|
口口口口 |----|
口口口口 |----|
口口口口 |----|
3
口口口口 |----|
口口口口 |----|
口口口口 |----|
口口口口 |----|
4
口口口口 |----|
口口口口 |----|
口口口口 |----|
口口口口 |----|
5
①口口④ |①---|
口口口口 |②---|
口口口口 |③---|
②口口③ |④---|
6
口口口口 |①---|
口①口口 |----|
口口②口 |②---|
口口口口 |----|
7
口口口口 |①---|
口口①口 |----|
口②口口 |②---|
口口口口 |----|
8
口口口口 |①---|
口口②④ |②---|
①③口口 |③---|
口口口口 |④---|
9
口口口口 |①---|
口②口口 |②---|
口③③① |③---|
口口口口 |----|
10
口口口口 |①---|
口口①口 |----|
口②口口 |②---|
口口口口 |----|
11
口口口口 |①---|
口①口口 |----|
口口②口 |②---|
口口口口 |----|
12
口口口口 |①---|
④②口口 |②---|
口口③① |③---|
口口口口 |④---|
13
口口口口 |①---|
口口②口 |②---|
①③③口 |③---|
口口口口 |----|
14
口②④口 |①---|
口①③口 |②---|
口口口口 |③---|
口口口口 |④---|
15
④口口口 |①---|
口③③口 |②---|
①口口② |③---|
口口口口 |--④-|
16
口口口口 |----|
口口②口 |①---|
口③①口 |②---|
口口口口 |③---|
17
口口口口 |①---|
口①口口 |②---|
口口②口 |③---|
③口口③ |----|
18
口②④口 |①---|
口①③口 |②---|
口口口口 |③---|
口口口口 |④---|
19
④口口口 |①---|
口③③口 |②---|
①口口② |③---|
口口口口 |--④-|
20
口口口口 |----|
口口②口 |①---|
口③①口 |②---|
口口口口 |③---|
21
口口口口 |①---|
③①口③ |②---|
口口②口 |③---|
口口口口 |----|
22
口①①口 |①---|
口①①口 |----|
口口口口 |----|
口口口口 |----|
23
口口口口 |----|
口口口口 |----|
口口口口 |----|
口口口口 |----|
24
口口口口 |----|
口口口口 |----|
口口口口 |----|
口口口口 |----|
25
口口口口 |----|
口口口口 |----|
口口口口 |----|
口口口口 |----|
26
口②④口 |①---|
①口口③ |②---|
口口口口 |③---|
口口口口 |④---|
27
④口口口 |①---|
口③③口 |②---|
①口口② |③---|
口口口口 |--④-|
28
口口口口 |----|
口口②口 |①---|
口③①口 |②---|
口口口口 |③---|
29
口口口口 |①---|
口①口口 |②---|
口口②口 |③---|
③口口③ |----|
30
②口口④ |①---|
口①③口 |②---|
口口口口 |③---|
口口口口 |④---|
31
④口口口 |①---|
口③③口 |②---|
①口口② |③---|
口口口口 |--④-|
32
口口口口 |----|
口③②口 |①---|
口口①口 |②---|
口口口口 |③---|
33
口口口口 |①---|
口口口口 |②---|
口①②口 |③---|
③口口③ |----|
34
口①①口 |①---|
口口口口 |----|
口口②口 |----|
口口口口 |②---|
35
口口口口 |①---|
口口口① |----|
口③口口 |②---|
口②②口 |--③-|
36
口口口口 |----|
口口口口 |①---|
口口③② |②---|
口口口① |③---|
37
③口口③ |①---|
口②①口 |②---|
口口口口 |③---|
口口口口 |----|
38
口①①口 |①---|
口口口口 |----|
口②口口 |----|
口口口口 |②---|
39
口口口口 |①---|
①口口口 |----|
口口口口 |②---|
口②②口 |----|
40
口口口口 |①---|
②口口④ |②---|
口③①口 |③---|
口口口口 |④---|
41
口①①口 |①---|
口③口口 |----|
口口口口 |--②-|
口②口口 |--③-|
42
口口口口 |①---|
⑤口口① |②-③-|
④口③口 |--④-|
口口口② |--⑤-|
43
口口口口 |--①-|
口口口口 |②---|
口②口③ |③---|
①口口口 |----|
44
口④②口 |①---|
口①③口 |②---|
口口口口 |③---|
口口口口 |④---|
45
⑤口口⑤ |①---|
①口口口 |②-③-|
口④口② |④---|
口口③口 |⑤---|
46
口口口口 |①---|
⑤口口① |②-③-|
④口③口 |--④-|
口口口② |--⑤-|
47
口口口口 |--①-|
口口口口 |②---|
口②口③ |③---|
①口口口 |----|
48
口口口口 |①---|
口①①口 |----|
口口③口 |②---|
口口口② |③---|
49
口口口口 |①---|
口③③口 |②---|
口②口口 |③---|
①口口口 |----|
50
口口口口 |①---|
⑤口口① |②-③-|
④口③口 |--④-|
口口口② |--⑤-|
51
口口口口 |--①-|
口口口口 |②---|
口②口③ |③---|
①口口口 |----|
52
口④②口 |①---|
口①③口 |②---|
口口口口 |③---|
口口口口 |④---|
53
⑤口口⑤ |①---|
①口口口 |②-③-|
口④口② |④---|
口口③口 |⑤---|
54
口口口口 |①---|
⑤口口① |②-③-|
④口③口 |--④-|
口口口② |--⑤-|
55
口口口口 |--①-|
口口口口 |②---|
口②口③ |③---|
①口口口 |----|
56
口口口口 |①---|
口①①口 |----|
口口③口 |②---|
口口口② |③---|
57
口③③口 |①---|
口口口口 |②---|
口②口口 |③---|
①口口口 |----|
58
①⑤口② |①---|
口④口③ |--②-|
口口口口 |③---|
口口口口 |④-⑤-|
59
口口③口 |----|
口口口口 |①---|
口②①口 |②---|
口口口口 |③---|
60
口口口口 |①---|
①口口① |--②-|
口口口口 |③---|
口③②口 |----|
61
口①②口 |①---|
口②①口 |②---|
口口口口 |③---|
③口口③ |----|
62
①⑤口② |①---|
口④口③ |--②-|
口口口口 |③---|
口口口口 |④-⑤-|
63
口口③口 |----|
口口口口 |①---|
口②①口 |②---|
口口口口 |③---|
64
口口口口 |①---|
①口口① |--②-|
口口口口 |③---|
口③②口 |----|
65
口①②口 |①---|
口②①口 |②---|
口口口口 |③---|
③口口③ |----|

BPM: 208.571
66
口口口口 |①---|
口口口口 |②---|
①③②④ |③---|
口口口口 |④---|
67
口口口口 |①---|
③①④② |②---|
口口口口 |③---|
口口口口 |④---|

BPM: 211.127
68
口口口口 |①---|
口口口口 |②---|
②口口④ |③---|
①口口③ |④---|
69
口③③口 |①---|
口口②口 |②---|
口①口口 |③---|
口口口口 |----|

BPM: 228.674
70
口口口口 |①---|
口口口口 |②---|
①③②④ |③---|
口口口口 |④---|
71
口口口口 |①---|
③①④② |②---|
口口口口 |③---|
口口口口 |④---|

BPM: 238.7
72
口口口口 |①---|
口口口口 |②---|
口口口口 |③---|
①②④③ |④---|

BPM: 250.869
73
口口口④ |①---|
口①②口 |②---|
口口口③ |③---|
口口口口 |④---|

BPM: 257.172
74
口口口口 |①---|
口口口口 |②---|
①③②④ |③---|
口口口口 |④---|
75
口口口口 |①---|
③①④② |②---|
口口口口 |③---|
口口口口 |④---|

BPM: 262.178
76
口口口口 |①---|
口口口口 |②---|
②口口④ |③---|
①口口③ |④---|
77
口③③口 |①---|
口口②口 |②---|
口①口口 |③---|
口口口口 |----|

BPM: 276.335
78
口口口口 |①---|
口口口口 |②---|
①③②④ |③---|
口口口口 |④---|

BPM: 276.6
79
口口口口 |①---|
③①④② |②---|
口口口口 |③---|
口口口口 |④---|

BPM: 296
80
口口口口 |①---|
口口口口 |②---|
口口口口 |③---|
①②④③ |④---|
81
④口口④ |①---|
口①②口 |②---|
③口口③ |③---|
口口口口 |④---|

不確定度: 0

最終更新:2017年03月04日 23:57