Boss Rush
USAO

BASIC

Level: 4
BPM: 190
Notes: 386

1
口口口口 |----|
口口口口 |----|
口口口口 |----|
口口口口 |----|
2
口口口口 |①---|
口口口口 |----|
口③②口 |②---|
口①①口 |③---|
3
①②口口 |--①-|
口口口口 |--②-|
口③③口 |----|
口口口口 |③---|
4
口口口口 |①---|
④③②① |②---|
口口口口 |③---|
口口口口 |④---|
5
①②③④ |①---|
口口口口 |②---|
口口口口 |③---|
口口口口 |④---|
6
口口口口 |①---|
口口口口 |----|
口②③口 |②---|
口①①口 |③---|
7
口口②① |--①-|
口口口口 |--②-|
口③③口 |----|
口口口口 |③---|
8
口口口口 |①---|
①②③④ |②---|
口口口口 |③---|
口口口口 |④---|
9
④③②① |①---|
口口口口 |②---|
口口口口 |③---|
口口口口 |④---|
10
口口口口 |①---|
口口口口 |----|
口③②口 |②---|
①①①① |③---|
11
①②口口 |--①-|
口口口口 |--②-|
口③③口 |----|
口口口口 |③---|
12
口口口口 |①---|
④③②① |②---|
口口口口 |③---|
口口口口 |④---|
13
①②③④ |①---|
口口口口 |②---|
口口口口 |③---|
口口口口 |④---|
14
口口口口 |①---|
口口口口 |----|
口②③口 |②---|
口①①口 |③---|
15
口口②① |--①-|
口口口口 |--②-|
口③③口 |----|
口口口口 |③---|
16
口口口口 |①---|
①②③④ |②---|
口口口口 |③---|
口口口口 |④---|
17
④③②① |①---|
口口口口 |②---|
口口口口 |③---|
口口口口 |④---|
18
口口口口 |①---|
口口口口 |----|
口口②口 |②---|
①①①① |----|
19
口口口口 |①---|
口①口口 |----|
②口口口 |②---|
口口口口 |----|
20
口口口口 |①---|
①口口口 |----|
口②口口 |②---|
口口口口 |----|
21
口口口口 |①---|
口②①口 |②---|
口④③口 |③---|
口口口口 |④---|
22
口口口① |①---|
口口口② |②---|
口口口③ |③---|
口口口④ |④---|
23
④口口口 |①---|
③口口口 |②---|
②口口口 |③---|
①口口口 |④---|
24
口①①口 |①---|
口②②口 |②---|
口③③口 |③---|
口④④口 |④---|
25
③②②③ |①---|
口口口口 |--②-|
①口口① |--③-|
口口口口 |----|
26
口口口口 |①---|
口②④口 |②---|
口③①口 |③---|
口口口口 |④---|
27
口①②口 |①---|
口③口口 |②---|
口口口口 |③---|
口口口口 |----|
28
口口口口 |①---|
口④②口 |②---|
口①③口 |③---|
口口口口 |④---|
29
口②①口 |①---|
口口③口 |②---|
口口口口 |③---|
口口口口 |----|
30
口口口口 |①---|
口②④口 |②---|
口③①口 |③---|
口口口口 |④---|
31
口①②口 |①---|
口③口口 |②---|
口口口口 |③---|
口口口口 |----|
32
口口口口 |①---|
口口②口 |②---|
口①口口 |----|
口③③口 |③---|
33
④口口④ |①---|
③口口③ |②---|
②口口② |③---|
①口口① |④---|
34
口口口口 |①---|
口②④口 |②---|
口③①口 |③---|
口口口口 |④---|
35
口①②口 |①---|
口③口口 |②---|
口口口口 |③---|
口口口口 |----|
36
口口口口 |①---|
口④②口 |②---|
口①③口 |③---|
口口口口 |④---|
37
口②①口 |①---|
口口③口 |②---|
口口口口 |③---|
口口口口 |----|
38
口口口口 |①---|
口②口口 |②---|
口口①口 |----|
口③③口 |③---|
39
口口口口 |①---|
①口口① |②---|
②口口② |③---|
③口口③ |----|
40
口口口口 |①---|
④③②① |②---|
口口口口 |③---|
口口口口 |④---|
41
①②③④ |①---|
口口口口 |②---|
口口口口 |③---|
口口口口 |④---|
42
口口口口 |①---|
口口口口 |----|
口③②口 |②---|
口①①口 |③---|
43
①②口口 |--①-|
口口口口 |--②-|
口③③口 |----|
口口口口 |③---|
44
口口口口 |①---|
④③②① |②---|
口口口口 |③---|
口口口口 |④---|
45
①②③④ |①---|
口口口口 |②---|
口口口口 |③---|
口口口口 |④---|
46
口口口口 |①---|
口口口口 |----|
口②③口 |②---|
口①①口 |③---|
47
口口②① |--①-|
口口口口 |--②-|
口③③口 |----|
口口口口 |③---|
48
口口口口 |①---|
①②③④ |②---|
口口口口 |③---|
口口口口 |④---|
49
④③②① |①---|
口口口口 |②---|
口口口口 |③---|
口口口口 |④---|
50
口口口口 |①---|
口口口口 |----|
口①①口 |----|
口口口口 |----|
51
口口口口 |①---|
口口①口 |----|
口口口口 |----|
口口口口 |----|
52
口口口口 |①---|
口口口口 |----|
口①口口 |----|
口口口口 |----|
53
口口口口 |①---|
口口口口 |----|
口口①口 |----|
口口口口 |----|
54
口口口口 |①---|
口①口口 |----|
口口口口 |----|
口口口口 |----|
55
口口口口 |①---|
口口①口 |----|
口口口口 |----|
口口口口 |----|
56
口口口口 |①---|
口口口口 |----|
口①口口 |----|
口口口口 |----|
57
口口口口 |①---|
口口口口 |----|
口口①口 |----|
口口口口 |----|
58
口口①口 |①---|
口②口口 |--②-|
口口③口 |----|
口口口口 |③---|
59
口①口口 |①---|
口口②口 |--②-|
口③口口 |----|
口口口口 |③---|
60
口口①口 |①---|
口②口口 |--②-|
口口③口 |----|
口口口口 |③---|
61
口口口口 |①---|
口③③口 |--②-|
②口口② |----|
口①①口 |③---|
62
口口口① |①---|
口口口② |②---|
口口口③ |③---|
口口口④ |④---|
63
④口口口 |①---|
③口口口 |②---|
②口口口 |③---|
①口口口 |④---|
64
口①①口 |①---|
口②②口 |②---|
口③③口 |③---|
口④④口 |④---|
65
口口口口 |①---|
口口②口 |----|
①③口① |②---|
口口口口 |③---|
66
①①①① |①---|
口②口口 |②---|
口④③口 |③---|
口口口口 |④---|
67
口口口口 |①---|
①口口① |②---|
②口口② |③---|
③口口③ |----|
68
口口口口 |①---|
口②①口 |②---|
口④③口 |③---|
口口口口 |④---|
69
④口口④ |①---|
②口口② |②---|
①口口① |③---|
③口口③ |④---|
70
口口口口 |①---|
口②①口 |②---|
口④③口 |③---|
口口口口 |④---|
71
口口口口 |①---|
②口口① |②---|
④口口③ |③---|
口口口口 |④---|
72
口口口口 |①---|
口②①口 |②---|
口④③口 |③---|
口口口口 |④---|
73
③③③③ |①---|
②口口② |②---|
①口口① |③---|
口口口口 |----|
74
口口口口 |①---|
口②①口 |②---|
口④③口 |③---|
口口口口 |④---|
75
口口口口 |①---|
①口口① |②---|
②口口② |③---|
③口口③ |----|
76
口口口口 |①---|
口②①口 |②---|
口④③口 |③---|
口口口口 |④---|
77
④口口④ |①---|
②口口② |②---|
①口口① |③---|
③口口③ |④---|
78
口口口口 |①---|
口②①口 |②---|
口④③口 |③---|
口口口口 |④---|
79
口口口口 |①---|
②口口① |②---|
④口口③ |③---|
口口口口 |④---|
80
口④口口 |①---|
口口③口 |②---|
口②口口 |③---|
口口①口 |④---|
81
④口口④ |①---|
③口口③ |②---|
②口口② |③---|
①口口① |④---|
82
口口口口 |①---|
口口口口 |----|
口③②口 |②---|
口①①口 |③---|
83
①②口口 |--①-|
口口口口 |--②-|
口③③口 |----|
口口口口 |③---|
84
口口口口 |①---|
④③②① |②---|
口口口口 |③---|
口口口口 |④---|
85
①②③④ |①---|
口口口口 |②---|
口口口口 |③---|
口口口口 |④---|
86
口口口口 |①---|
口口口口 |----|
口②③口 |②---|
口①①口 |③---|
87
口口②① |--①-|
口口口口 |--②-|
口③③口 |----|
口口口口 |③---|
88
口口口口 |①---|
①②③④ |②---|
口口口口 |③---|
口口口口 |④---|
89
④③②① |①---|
口口口口 |②---|
口口口口 |③---|
口口口口 |④---|
90
口口口口 |①---|
口口口口 |----|
口口②口 |②---|
①①①① |----|
91
口口口口 |①---|
口①口口 |----|
②口口口 |②---|
口口口口 |----|
92
口口口口 |①---|
①口口口 |----|
口②口口 |②---|
口口口口 |----|
93
口口口口 |①---|
口口①口 |----|
口口口② |②---|
口口口口 |----|
94
口口口口 |①---|
口②口口 |----|
口口①口 |②---|
口口口口 |----|
95
口口口口 |①---|
口口②口 |----|
口①口口 |②---|
口口口口 |----|
96
口口口口 |①---|
口②口口 |----|
口口①口 |②---|
口口口口 |----|
97
口⑧⑦口 |①-②-|
口⑥⑤口 |③-④-|
口④③口 |⑤-⑥-|
口②①口 |⑦-⑧-|

不確定度: 0

最終更新:2017年03月04日 23:49