KHAMEN BREAK -SDVX Infinity MashUp-
くふおー effected by Megacycle

BASIC

Level: 5
BPM: 180
Notes: 490

1
口口口口 |----|
口口口口 |----|
口口口口 |----|
口口口口 |----|
2
口口口口 |----|
口口口口 |----|
口口口口 |----|
口口口口 |----|
3
口口②口 |----|
口口口口 |①---|
口口口口 |②---|
口①口口 |----|
4
口口口口 |①---|
口①①口 |----|
口①①口 |----|
口口口口 |----|
5
口口口口 |①---|
口口口① |----|
口口口口 |----|
口口口口 |----|
6
口口口口 |①---|
口口口口 |----|
口口①口 |----|
口口口口 |----|
7
口口口口 |①---|
口口口口 |----|
口口口口 |----|
口①口口 |----|
8
①口口口 |①---|
口口④口 |--②-|
口③②口 |③---|
口口口口 |--④-|
9
口④③② |①---|
口①口口 |②---|
口口口口 |③---|
口口口口 |④---|
10
①口口口 |①---|
口口口口 |----|
②口口口 |②---|
口口口口 |----|
11
口口口口 |①---|
②①①② |----|
②口口② |----|
口口口口 |②---|
12
口口口口 |①-②-|
口③③口 |--③-|
口④④口 |----|
①口口② |④---|
13
①②③④ |①---|
口口口口 |②---|
口口口口 |③---|
口口口口 |④---|
14
口口口口 |①---|
②口口④ |②---|
口口口口 |③---|
口①③口 |④---|
15
④④④④ |①---|
③③③口 |②---|
②②口口 |③---|
①口口口 |④---|
16
口口口口 |①-②-|
口③③口 |--③-|
口④④口 |----|
①口口② |④---|
17
①②③④ |①---|
口口口口 |②---|
口口口口 |③---|
口口口口 |④---|
18
口口口口 |①---|
②口口④ |②---|
口口口口 |③---|
口①③口 |④---|
19
④④④④ |①---|
③③③口 |②---|
②②口口 |③---|
①口口口 |④---|
20
口口口口 |①---|
口口口口 |----|
口口口口 |----|
口①①口 |----|
21
④口口④ |①---|
③口口③ |②---|
②口口② |③---|
①口口① |④---|
22
口口④口 |①---|
口口④口 |②---|
口③②口 |③---|
①口口① |④---|
23
口口口④ |①---|
①口口④ |②---|
③口口② |③---|
口口口口 |④---|
24
口①①口 |①---|
口②②口 |②---|
口③③口 |③---|
口④④口 |④---|
25
①口口① |①---|
②口口② |②---|
③口口③ |③---|
④口口④ |④---|
26
①口④① |①---|
口口④口 |②---|
口③②口 |③---|
口口口口 |④---|
27
口口口④ |①---|
①口口④ |②---|
③口口② |③---|
口口口口 |④---|
28
口①①口 |①---|
口②②口 |②---|
口③③口 |③---|
口④④口 |④---|
29
①④④① |①---|
②口口② |②---|
口口口口 |③---|
③口口口 |④---|
30
口口④④ |①---|
口③口口 |②---|
口口②口 |③---|
口①口口 |④---|
31
口口口口 |①-②-|
口口口口 |③-④-|
口⑥⑤④ |⑤-⑥-|
①②③口 |----|
32
口口④④ |①---|
口③口口 |②---|
口口口② |③---|
①口口口 |④---|
33
④④④④ |①---|
③③③口 |②---|
②②口口 |③---|
①口口口 |④---|
34
④④口口 |①---|
口口③口 |②---|
口②口口 |③---|
口口①口 |④---|
35
口口口口 |①-②-|
口口口口 |③-④-|
④⑤⑥口 |⑤-⑥-|
口③②① |----|
36
④④口口 |①---|
口口③口 |②---|
②口口口 |③---|
口口口① |④---|
37
④④④④ |①---|
口③③③ |②---|
口口②② |③---|
口口口① |④---|
38
口口口口 |①---|
②②②② |--②-|
口口口口 |----|
①①①① |----|
39
②②②② |①---|
口口口口 |--②-|
①①①① |----|
口口口口 |----|
40
口口口口 |①---|
②②②② |--②-|
口口口口 |----|
①①①① |----|
41
①①①① |①---|
口口口口 |--②-|
②②②② |----|
口口口口 |----|
42
口口口口 |①---|
②②②② |--②-|
口口口口 |----|
①①①① |----|
43
①②③④ |①---|
口口口口 |②---|
口口口口 |③---|
口口口口 |④---|
44
口口口口 |①---|
口口口口 |----|
①①①① |----|
口口口口 |----|
45
口口口口 |①---|
口口口口 |②---|
口口口口 |③---|
①②③④ |④---|
46
口口口口 |①---|
①①口口 |----|
②②口口 |②---|
口口口口 |----|
47
口口口口 |①---|
口口口口 |②---|
口口口口 |③---|
口③②① |----|
48
口口口口 |①---|
口口①① |----|
口口②② |②---|
口口口口 |----|
49
①②③口 |①---|
口口口口 |②---|
口口口口 |③---|
口口口口 |----|
50
口口口口 |①-②-|
①②③口 |③---|
口⑥⑤④ |④-⑤-|
口口口口 |⑥---|
51
口口口口 |①-②-|
口口口口 |③---|
口⑥⑤④ |④-⑤-|
①②③口 |⑥---|
52
②口口② |①---|
口①①口 |②---|
④口口④ |③---|
口③③口 |④---|
53
口①①口 |①---|
②口口② |②---|
口③③口 |③---|
④口口④ |④---|
54
口口口口 |①---|
④①口口 |②---|
③口口口 |③---|
口②口口 |④---|
55
④④口口 |①---|
口口口口 |②---|
口口口口 |③---|
口③②① |④---|
56
口口口口 |①---|
口口①④ |②---|
口口口③ |③---|
口口②口 |④---|
57
①口⑥⑥ |①-②-|
口②口口 |③-④-|
口口③口 |⑤---|
⑤口口④ |⑥---|
58
②②④④ |①---|
口口口口 |②---|
口口口口 |③---|
口①③口 |④---|
59
②②④④ |①---|
口口口口 |②---|
口口口口 |③---|
口①③口 |④---|
60
②②④④ |①---|
口口口口 |②---|
口口口口 |③---|
口①③口 |④---|
61
口口口口 |①---|
④①①④ |②---|
口②②口 |③---|
③口口③ |④---|
62
口口口口 |①---|
口口口口 |----|
口②口口 |----|
口①①口 |②---|
63
口口口口 |①---|
口①②口 |----|
口口口口 |----|
口口口口 |②---|
64
口口口口 |①---|
口口口口 |----|
口口①口 |②---|
②口口口 |----|
65
口口口口 |①---|
口口口口 |----|
口口口口 |----|
口口口① |----|
66
口口口口 |①---|
口口口口 |--②-|
①口口② |----|
口③口口 |③---|
67
口口口口 |①---|
①口口② |--②-|
口③口口 |----|
口口口口 |③---|
68
口口口口 |①---|
口口口口 |----|
口口②口 |②---|
口口①口 |----|
69
口口口口 |①---|
口口①口 |----|
口口口口 |----|
口口口口 |----|
70
①口口口 |①---|
口口②口 |②---|
③口口口 |③---|
口口④口 |④---|
71
口①口口 |①---|
口口口② |②---|
口③口口 |③---|
口口口④ |④---|
72
口口口① |①---|
口②口口 |②---|
口口口③ |③---|
口④口口 |④---|
73
口口①口 |①---|
②口口口 |②---|
口口③口 |③---|
④口口口 |④---|
74
口口口① |①---|
口口口② |②---|
口口口③ |③---|
口口口④ |④---|
75
口口口口 |①---|
口口口口 |②---|
④口口口 |③---|
③②①口 |④---|
76
②③④口 |①---|
①口口口 |②---|
口口口口 |③---|
口口口口 |④---|
77
口口口口 |①---|
口④①口 |②---|
口③②口 |③---|
口口口口 |④---|
78
①口口① |①---|
口口口口 |----|
口口口口 |----|
口口口口 |----|
79
口③口口 |①---|
口口口口 |②---|
口口口口 |③---|
①口②① |----|
80
②口口口 |①---|
③①①口 |②---|
④①①口 |③---|
口口口口 |④---|
81
口口口口 |①---|
口口③口 |②---|
口②口口 |③---|
口口①口 |----|
82
①口口③ |①---|
口②④口 |②---|
口口口口 |③---|
口口口口 |④---|
83
口①①口 |①---|
②口口② |②---|
口③③口 |③---|
④口口④ |④---|
84
①①①① |①---|
③②口口 |②---|
④口口口 |③---|
口口口口 |④---|
85
①①①① |①---|
口②口口 |②---|
口口口口 |③-④-|
口⑤④③ |⑤---|
86
口口口口 |①---|
①③③① |--②-|
②口口② |----|
口口口口 |③---|
87
口口口口 |--①-|
②口口② |----|
口①①口 |②---|
口③③口 |③---|
88
①①①① |①---|
③②口口 |②---|
④口口口 |③---|
口口口口 |④---|
89
①①①① |①---|
口口口口 |②---|
口②口口 |③-④-|
口⑤④③ |⑤---|
90
①口口③ |①---|
口②④口 |②---|
口口口口 |③---|
口口口口 |④---|
91
口①①口 |①---|
②口口② |②---|
口③③口 |③---|
④口口④ |④---|
92
②口口口 |①---|
③口口口 |②---|
④口口口 |③---|
口①①口 |④---|
93
口口①口 |①---|
口口口口 |②---|
④②口口 |③---|
口口③口 |④---|
94
口③③口 |①---|
口①①口 |②---|
口②②口 |③---|
口④④口 |④---|
95
③口口③ |①---|
①口口① |②---|
②口口② |③---|
④口口④ |④---|
96
口②口口 |----|
口口口口 |①---|
口口口口 |②---|
口口①口 |----|
97
口口口口 |①---|
口①①口 |----|
口①①口 |----|
口口口口 |----|

不確定度: 0

最終更新:2017年03月04日 23:47