KHAMEN BREAK -SDVX Infinity MashUp-
くふおー effected by Megacycle

ADVANCED

Level: 8
BPM: 180
Notes: 684

1
口口口口 |----|
口口口口 |----|
口口口口 |----|
口口口口 |----|
2
口口口口 |----|
口口口口 |----|
口口口口 |----|
口口口口 |----|
3
口③口口 |----|
口③口口 |①---|
口①②② |②---|
①①口② |--③-|
4
①口口口 |①---|
①口口口 |--②-|
口口③② |--③-|
口④⑤口 |④-⑤-|
5
口口口口 |①---|
①口口② |--②-|
口口③口 |--③-|
口④⑤口 |④-⑤-|
6
①口口② |①---|
口口口口 |--②-|
口口③口 |--③-|
口④⑤口 |④-⑤-|
7
口口口口 |①---|
①口口② |--②-|
口口③口 |--③-|
口④⑤口 |④-⑤-|
8
①①③③ |①---|
④④②② |--②-|
口口口口 |③---|
口口口口 |--④-|
9
①①口口 |①--②|
口口②② |--③-|
③③⑥⑥ |--④-|
⑤⑤④④ |⑤-⑥-|
10
①口口口 |①---|
⑤口口② |②-③-|
口③⑥口 |④---|
口口④口 |⑤-⑥-|
11
②口②口 |①---|
口口口口 |----|
口口口口 |----|
口①口口 |②---|
12
口③口① |①-②-|
③④口① |--③-|
②口④③ |----|
②口③口 |④---|
13
①口②口 |①-②-|
口口口③ |--③-|
口口④口 |--④-|
口⑤⑥口 |⑤-⑥-|
14
②②④④ |①-②-|
①⑤口③ |--③-|
口口口口 |④-⑤-|
口⑦⑥口 |⑥-⑦-|
15
⑦口⑦口 |①-②-|
口⑥⑤口 |③-④-|
口④③口 |⑤-⑥-|
②口口① |⑦---|
16
口③口② |①-②-|
③④口② |--③-|
①口④③ |----|
①口③口 |④---|
17
①口②口 |①-②-|
口口口③ |--③-|
口口④口 |--④-|
口⑤⑥口 |⑤-⑥-|
18
②②④④ |①-②-|
①口口③ |--③-|
口⑤口口 |④-⑤-|
口⑦⑥口 |⑥-⑦-|
19
口口⑦⑦ |①-②-|
⑥口口⑤ |③-④-|
④口口③ |⑤-⑥-|
②口口① |⑦---|
20
口口口口 |①---|
口①①口 |----|
口①①口 |----|
口口口口 |----|
21
口口口口 |①-②-|
口口口口 |③-④-|
⑤⑥⑦⑧ |⑤-⑥-|
①②③④ |⑦-⑧-|
22
①①③③ |①--②|
④④②② |--③-|
口⑤口口 |-④--|
口口⑥口 |⑤-⑥-|
23
①①③③ |①--②|
④④②② |--③-|
口⑤口口 |-④--|
口口⑥口 |⑤-⑥-|
24
口口口口 |①-②-|
⑤⑥④③ |③-④-|
口口口口 |⑤-⑥-|
①②⑧⑦ |⑦-⑧-|
25
①②③④ |①-②-|
口口口口 |③-④-|
⑤⑥⑦⑧ |⑤-⑥-|
口口口口 |⑦-⑧-|
26
①①③③ |①--②|
④④②② |--③-|
口⑤口口 |-④--|
口口⑥口 |⑤-⑥-|
27
①①③③ |①--②|
④④②② |--③-|
口⑤口口 |-④--|
口口⑥口 |⑤-⑥-|
28
口⑤口口 |①-②-|
⑥口④① |③-④-|
⑦口③口 |⑤-⑥-|
口⑧口② |⑦-⑧-|
29
④口口⑤ |①-②-|
⑥口③口 |③-④-|
口②口口 |⑤-⑥-|
口口①⑦ |⑦---|
30
④口口口 |①---|
口①口口 |--②-|
口口⑤② |③--④|
口③口口 |--⑤-|
31
口③②① |①-②-|
④⑤⑥口 |③-④-|
口口口口 |⑤-⑥-|
⑦⑦口口 |⑦---|
32
①口口口 |①---|
口③口⑤ |--②-|
口口口② |③--④|
④口口口 |--⑤-|
33
口口③③ |①---|
口口②④ |--②-|
口口口口 |----|
口①口口 |③-④-|
34
①口口口 |①---|
口④口口 |--②-|
口口②口 |③--④|
口③口⑤ |--⑤-|
35
口③②① |①-②-|
④⑤⑥口 |③-④-|
口口⑧口 |⑤-⑥-|
口⑦口口 |⑦-⑧-|
36
①口⑤口 |①---|
口口口口 |--②-|
④口口③ |③--④|
口口②口 |--⑤-|
37
①②口② |①---|
口口口口 |--②-|
口口口口 |----|
③③口口 |③---|
38
③④口口 |①---|
口①①口 |--②-|
口②②口 |----|
口口口口 |③-④-|
39
口口②① |①-②-|
③④⑥⑤ |③-④-|
口⑦⑦口 |⑤-⑥-|
口口口口 |⑦---|
40
口①①口 |①---|
口口口口 |--②-|
口口口口
口②②口

④⑤口口
口口口口
③口口③ |--③-|
口口口口 |④-⑤-|
41
口口②① |①-②-|
③④⑥⑤ |③-④-|
口⑦⑦口 |⑤-⑥-|
口口口口 |⑦---|
42
⑤⑥①① |①-②-|
口口口口 |--③-|
口口口口 |--④-|
②③④口 |⑤-⑥-|
43
口口②① |①-②-|
③④⑥⑤ |③-④-|
口⑦⑦口 |⑤-⑥-|
口口口口 |⑦---|
44
⑤⑥①① |①-②-|
口口口口 |--③-|
口口口口 |--④-|
②③④口 |⑤-⑥-|
45
口口②① |①-②-|
③④⑥⑤ |③-④-|
口⑦⑦口 |⑤-⑥-|
口口口口 |⑦---|
46
⑤③口口 |①-②-|
④口口口 |--③-|
②口口口 |④---|
①口口① |--⑤-|
47
口口口口 |①-②-|
⑤口口口 |③-④-|
③④口口 |⑤---|
①②口口 |----|
48
口口③⑤ |①-②-|
口口口④ |--③-|
口口②口 |④---|
口口口① |--⑤-|
49
口口口口 |①-②-|
口口口⑤ |③-④-|
口口④③ |⑤---|
口口②① |----|
50
①⑦口⑧ |①-②-|
②⑥口口 |③-④-|
③⑤口口 |⑤-⑥-|
口口④口 |⑦-⑧-|
51
口口⑧口 |①-②-|
①⑦④口 |③-④-|
②⑥口口 |⑤-⑥-|
③⑤口口 |⑦-⑧-|
52
④口口② |①---|
④口口② |②---|
口口口口 |③---|
口③①口 |④---|
53
口⑤⑥⑥ |①-②-|
口③④口 |③-④-|
口①②口 |⑤---|
口口口口 |⑥---|
54
⑧④口口 |①-②-|
⑤⑥⑦口 |③-④-|
口②口③ |⑤-⑥-|
①口口口 |⑦-⑧-|
55
⑦⑦口口 |①-②-|
口口⑥口 |③-④-|
③④口口 |⑤-⑥-|
①②⑤口 |⑦---|
56
口口④⑧ |①-②-|
口⑦⑥⑤ |③-④-|
口口②口 |⑤-⑥-|
③口口① |⑦-⑧-|
57
⑥①口⑥ |①-②-|
②口口口 |③-④-|
口③口口 |⑤---|
④口⑤口 |⑥---|
58
口③③口 |①-②-|
⑥口口⑥ |③---|
②口口① |④-⑤-|
口⑤④口 |⑥---|
59
⑥③③⑥ |①-②-|
口口口口 |③---|
②口口① |④-⑤-|
口⑤④口 |⑥---|
60
口口口口 |①-②-|
③③⑥⑥ |③---|
口⑤②口 |④-⑤-|
④口口① |⑥---|
61
③⑦⑧④ |①-②-|
口口口口 |③-④-|
⑤口口⑥ |⑤-⑥-|
口①②口 |⑦-⑧-|
62
口口口口 |①---|
③④口口 |--②-|
口口②口 |----|
口①口口 |③-④-|
63
口②口口 |①--②|
口口①口 |----|
口口④口 |----|
口口口③ |③-④-|
64
口口口口 |①---|
口①口口 |②---|
口②口口 |③---|
口③④口 |④---|
65
口口口口 |①---|
口口口口 |----|
口口口口 |----|
口口口① |----|
66
口口口口 |①---|
口口口口 |--②-|
①①②② |----|
口③③口 |③---|
67
口口口口 |①---|
①①②② |--②-|
口口口口 |----|
口③③口 |③---|
68
口口口口 |①---|
口口口口 |②---|
①②③④ |③---|
口口口口 |④---|
69
口口口① |①---|
口口口口 |----|
口口口口 |----|
口口口口 |----|
70
①口口② |①-②-|
③口口④ |③-④-|
⑤口口⑥ |⑤-⑥-|
⑦口口⑧ |⑦-⑧-|
71
①口②口 |①-②-|
③口④口 |③-④-|
⑤口⑥口 |⑤-⑥-|
⑦口⑧口 |⑦-⑧-|
72
①②口口 |①-②-|
③④口口 |③-④-|
⑤⑥口口 |⑤-⑥-|
⑦⑧口口 |⑦-⑧-|
73
口口①① |①---|
口口②② |②---|
口口③③ |③---|
口口④④ |④---|
74
②口口① |①-②-|
④口口③ |③-④-|
⑥口口⑤ |⑤-⑥-|
⑧口口⑦ |⑦-⑧-|
75
口②口① |①-②-|
口④口③ |③-④-|
口⑥口⑤ |⑤-⑥-|
口⑧口⑦ |⑦-⑧-|
76
口口②① |①-②-|
口口④③ |③-④-|
口口⑥⑤ |⑤-⑥-|
口口⑧⑦ |⑦-⑧-|
77
①①②② |①---|
①①②② |----|
口口口口 |②---|
口口口口 |----|
78
口口口口 |①---|
口口口口 |----|
口①①口 |----|
口①①口 |----|
79
口④口口 |①---|
口④口口 |②---|
口②③③ |③---|
②②①③ |--④-|
80
①口口口 |①---|
①口②口 |--②-|
口②口口 |--③-|
③④⑤口 |④-⑤-|
81
口口③① |①--②|
口②口⑤ |--③-|
口④口口 |④---|
口口口口 |--⑤-|
82
⑤口口② |①-②-|
③⑤②口 |--③-|
口口⑥口 |④-⑤-|
①口口④ |--⑥-|
83
口①②口 |①-②-|
③口口④ |③-④-|
⑤口口⑥ |⑤-⑥-|
口⑦⑧口 |⑦-⑧-|
84
①①②② |①-②-|
口口③口 |--③-|
口③口口 |--④-|
④⑤⑥口 |⑤-⑥-|
85
②③①① |①--②|
口口口口 |--③-|
口口口口
口口口口

口口口⑤
口口口口
口口④口 |④---|
口口口口 |--⑤-|
86
⑥③③⑤ |①-②-|
⑥④④⑤ |--③-|
②口口② |④---|
①口口① |⑤-⑥-|
87
口⑤口④ |--①-|
口⑤口口 |②---|
口②③③ |③---|
②②①③ |④-⑤-|
88
①口口口 |①---|
①口②口 |--②-|
口②口口 |--③-|
③④⑤口 |④-⑤-|
89
口口③① |①--②|
口②口⑦ |--③-|
④⑤⑥口 |④-⑤-|
口口口口 |⑥-⑦-|
90
⑤口口② |①-②-|
③⑤②口 |--③-|
口口⑥口 |④-⑤-|
①口口④ |--⑥-|
91
口①②口 |①-②-|
③口口④ |③-④-|
⑤口口⑥ |⑤-⑥-|
口⑦⑧口 |⑦-⑧-|
92
①①②② |①-②-|
口口③口 |--③-|
口③口口 |--④-|
④⑤⑥口 |⑤-⑥-|
93
③⑥⑤③ |①--②|
②④④① |--③-|
②③③① |④-⑤-|
口⑦口口 |⑥-⑦-|
94
口④口口 |①---|
③口③③ |②---|
口口②口 |③---|
①口①① |④---|
95
④④④④ |①---|
③③③③ |②---|
②②②② |③---|
①①①① |④---|
96
口③口口 |----|
口③口口 |①---|
口①②② |②---|
①①口② |--③-|
97
①口口口 |①---|
①口口口 |----|
口口口口 |----|
口口口口 |----|

不確定度: 0

最終更新:2017年03月04日 23:47