KHAMEN BREAK -SDVX Infinity MashUp-
くふおー effected by Megacycle

EXTREME

Level: 10
BPM: 180
Notes: 1050

1
口口口口 |----|
口口口口 |----|
口口口口 |----|
口口口口 |----|
2
口口口口 |----|
口口口口 |----|
口口口口 |----|
口口口口 |----|
3
口③口口 |----|
口③口口 |①---|
口①②② |②---|
①①口② |--③-|
4
①口口② |①---|
①口④口 |②-③-|
口口口⑥ |--④-|
③③⑤口 |⑤-⑥-|
5
口口口② |①---|
口口④口 |②-③-|
①①口⑥ |--④-|
③③⑤口 |⑤-⑥-|
6
口口口② |①---|
①①④口 |②-③-|
口口口⑥ |--④-|
③③⑤口 |⑤-⑥-|
7
口口口② |①---|
口口④口 |②-③-|
①①口⑥ |--④-|
③③⑤口 |⑤-⑥-|
8
口①②口 |①---|
①口口口 |--②-|
口口②口
口口口口

③④口口
口③口口
口④口口 |③---|
口口口口 |--④-|
9
④口③① |①--②|
③④①⑤ |--③-|
口⑥⑤② |--④-|
⑥②口口 |⑤-⑥-|
10
口③口口 |①---|
口口④口 |②-③-|
⑤口⑥口 |④---|
口②①① |⑤-⑥-|
11
①⑨⑩② |①②③④|
⑬③口④ |⑤⑥⑦⑧|
⑪⑤口⑥ |⑨⑩⑪⑫|
⑦⑬⑧⑫ |⑬---|
12
③口口④ |①-②-|
口①②口 |--③-|
④②①③ |----|
口④③口 |④---|
13
⑥④②⑧ |①-②-|
④⑥⑧② |③-④-|
口口口口 |⑤-⑥-|
①⑦⑤③ |⑦-⑧-|
14
口口口口 |①-②-|
⑥口⑥口 |--③-|
②④②④ |④---|
①口⑤③ |⑤-⑥-|
15
⑤⑩④③ |①②③④|
⑬⑥口⑦ |⑤⑥⑦⑧|
⑨口⑧⑪ |⑨⑩⑪⑫|
①②⑫口 |⑬---|
16
②口口③ |①-②-|
口口①口 |--③-|
④①④口 |----|
③口口② |④---|
17
⑥②④⑧ |①-②-|
②⑥⑧④ |③-④-|
口口口口 |⑤-⑥-|
⑦③⑤① |⑦-⑧-|
18
口口口口 |①-②-|
⑥口⑥口 |--③-|
④②④② |④---|
口③⑤① |⑤-⑥-|
19
⑫口⑩② |①②③④|
口⑪⑬① |⑤⑥⑦⑧|
⑧④⑨⑥ |⑨⑩⑪⑫|
③⑦⑬⑤ |⑬---|
20
口①口口 |①---|
①口口口 |----|
口①口口 |----|
①口口口 |----|
21
①⑮⑫⑯ |①②③④|
⑨③⑧④ |⑤⑥⑦⑧|
⑤⑪②⑥ |⑨⑩⑪⑫|
⑬⑦⑭⑩ |⑬⑭⑮⑯|
22
①口口口 |①-②-|
④①③⑤ |③-④-|
⑥口⑤② |--⑤-|
⑥③口口 |--⑥-|
23
①③①口 |①--②|
③口口④ |--③-|
口②口④ |--④-|
⑤口⑤② |--⑤-|
24
口①⑥② |----|
⑦⑨口⑩ |①②③④|
⑤⑪④口 |⑤⑥⑦⑧|
口③⑧⑫ |⑨⑩⑪⑫|
25
③口⑧④ |①②③④|
口口②口 |⑤⑥⑦⑧|
⑦口口⑥
①⑤口口

口⑨口口
⑪口⑯⑭
口⑬⑩口 |⑨⑩⑪⑫|
⑮口⑫口 |⑬⑭⑮⑯|
26
①③⑤③ |①--②|
⑥①口口 |--③-|
④口④⑦ |-④--|
⑧②口② |⑤⑥⑦⑧|
27
口③口③ |①--②|
口口①① |--③-|
口口口口
口②②口

⑤口口口
口口⑥口
④⑦④口 |-④--|
口口口⑧ |⑤⑥⑦⑧|
28
口口②口 |①②③④|
⑦③口⑥ |⑤⑥⑦⑧|
口口口④
①⑤⑧口

⑬⑪⑯⑩
口口⑭口
⑨⑮⑫口 |⑨⑩⑪⑫|
口口口口 |⑬⑭⑮⑯|
29
口口口⑤ |①-②-|
③①口口 |③-④⑤|
④口口口
②口口口

口口口口
口⑫⑪⑥
口⑩⑬⑦ |⑥⑦⑧⑨|
口口⑨⑧ |⑩⑪⑫⑬|
30
①①口③ |①-②-|
⑦口口口 |--③-|
⑥⑦口④ |④-⑤⑥|
②③⑤口 |--⑦-|
31
①②③④ |①②③④|
口⑤⑩口 |⑤-⑥⑦|
⑪⑫⑬⑭ |⑧⑨⑩-|
⑨⑧⑦⑥ |⑪⑫⑬⑭|
32
⑥①③③ |①-②-|
①⑥④② |--③-|
⑦⑦口口 |④-⑤⑥|
口口⑤⑦ |--⑦-|
33
口口口口 |①-②-|
②口口③ |③---|
口口口①
口口口口

口④口口
口口⑤口
⑥⑦⑧⑨ |④--⑤|
口口口口 |⑥⑦⑧⑨|
34
①口口③ |①-②-|
口①⑥④ |--③-|
⑦⑦⑥口 |④-⑤⑥|
②③⑤口 |--⑦-|
35
①②④⑤ |①-②-|
②①⑥⑦ |③-④⑤|
⑩⑪⑫⑬ |⑥⑦⑧⑨|
③③⑧⑨ |⑩⑪⑫⑬|
36
①①③③ |①-②-|
①⑥④④ |--③-|
⑥⑦⑦口 |④-⑤⑥|
②③⑤⑦ |--⑦-|
37
①⑤④⑧ |①②③④|
口口⑥口 |⑤⑥⑦⑧|
口口口②
③⑦口口

口口口口
⑨⑬口⑫
⑪⑮口⑯ |⑨⑩⑪⑫|
口口⑩⑭ |⑬⑭⑮⑯|
38
①口口② |①---|
口口口口 |--②-|
口口口口
口口口口

⑤口④口
⑦口⑥口
③口口口 |--③-|
口口口口 |④⑤⑥⑦|
39
口⑪⑩⑨ |①②③④|
口⑫⑫口 |⑤⑥⑦⑧|
⑧④⑦③ |⑨⑩⑪-|
⑥②⑤① |⑫---|
40
①口口口 |①---|
口口口口 |--②-|
③⑦⑥口 |--③-|
口⑤④② |④⑤⑥⑦|
41
⑥②①⑤ |①②③④|
④⑧⑦③ |⑤⑥⑦⑧|
口⑫⑫口 |⑨⑩⑪-|
口⑪⑩⑨ |⑫---|
42
口④口口 |①-②-|
②口口口 |③-④-|
③口口①
口口口口

⑧口⑦⑥
⑩口⑨口
口口口口 |⑤-⑥-|
⑤口口口 |⑦⑧⑨⑩|
43
口⑪⑩⑨ |①②③④|
口⑫⑫⑬ |⑤⑥⑦⑧|
⑧④⑦③ |⑨⑩⑪-|
⑥②⑤① |⑫-⑬-|
44
②口口口 |①-②-|
④口口口 |③-④-|
口口口口
口①口③

口口口口
口⑥口口
口⑩⑨口 |⑤-⑥-|
⑤⑧⑦口 |⑦⑧⑨⑩|
45
⑥②①⑤ |①②③④|
④⑧⑦③ |⑤⑥⑦⑧|
口口口口
口口口口

口⑬口口
口口口口
⑬⑫⑫口 |⑨⑩⑪-|
口⑪⑩⑨ |⑫-⑬-|
46
口口①口 |①-②-|
口口③口 |--③-|
口口口② |④---|
⑤口口④ |--⑤-|
47
口口口① |①-②-|
口④口② |③-④-|
口口③口 |⑤---|
口⑤口口 |----|
48
口口①口 |①-②-|
口口③① |--③-|
口②口口 |④---|
④口口⑤ |--⑤-|
49
①⑧⑦⑥ |①-②-|
②口④口 |③-④-|
口③口口 |⑤-⑥⑦|
口口⑤口 |⑧---|
50
③口⑧口 |①-②-|
口②口⑦ |③-④⑤|
口⑥⑤④ |⑥-⑦-|
①口⑩⑨ |⑧-⑨⑩|
51
⑨⑧口③ |①-②-|
⑦口②口 |③-④⑤|
④⑤⑥⑩ |⑥-⑦-|
口①口口 |⑧-⑨⑩|
52
口⑦③口 |①-②-|
⑦⑥②③ |③-④-|
口④⑧口 |⑤-⑥-|
①口⑤口 |⑦-⑧-|
53
⑨口⑫⑧ |①-②-|
口⑤口③ |③-④-|
④⑦口⑩ |⑤⑥⑦⑧|
②⑪⑥① |⑨⑩⑪⑫|
54
⑨①口⑤ |①-②-|
①口⑥④ |③-④-|
③⑦②⑩ |⑤⑥⑦⑧|
⑧口⑩口 |⑨-⑩-|
55
⑨⑨②口 |①-②-|
①③④④ |③-④-|
⑤⑥⑦⑧ |⑤⑥⑦⑧|
口③⑩口 |⑨-⑩-|
56
口口口口 |①-②-|
①②③口 |③-④-|
④口口口
①④口口

⑧⑦⑥⑤
口口口⑨
口口口口 |⑤⑥⑦⑧|
⑩口口口 |⑨-⑩-|
57
口口⑥⑥ |①-②-|
④②口⑥ |③-④-|
口①口口 |⑤---|
口③⑤⑤ |⑥---|
58
③③⑥⑥ |①-②-|
③①②⑥ |③---|
口⑤④口 |④-⑤-|
口口口口 |⑥---|
59
③③⑥⑥ |①-②-|
③①②⑥ |③-④-|
④口口④ |⑤---|
①⑤⑤② |⑥---|
60
③③⑦⑦ |①-②-|
③①②⑦ |③-④-|
⑥口⑤⑧ |⑤-⑥-|
口④口口 |⑦-⑧-|
61
⑤口口口 |①②③④|
口①④口 |⑤⑥⑦⑧|
口⑦⑧口
③口②⑥

口⑨⑫口
⑬口口⑩
⑪口口⑭ |⑨⑩⑪⑫|
口⑮⑯口 |⑬⑭⑮⑯|
62
口口口② |①---|
口①口口 |--②-|
口口口口 |----|
③口口口 |③---|
63
②口口口 |①--②|
口①口③ |----|
口口④口 |----|
口口口口 |③-④-|
64
①口口④ |①--②|
②⑤口口 |--③-|
口③⑥口 |-④--|
口⑦口口 |⑤⑥⑦-|
65
口口口口 |----|
口口口口 |----|
口口口口 |----|
口口口口 |----|
66
⑤口口① |①-②③|
⑤②⑥① |④-⑤-|
口⑦③口 |⑥⑦⑧-|
⑨④⑧⑩ |⑨-⑩-|
67
⑤口口① |①-②③|
⑤②⑥① |④-⑤-|
口⑦③口 |⑥⑦⑧-|
⑨④⑧⑩ |⑨-⑩-|
68
口③⑤⑤ |①---②-|
③②口② |--③---|
①口①④ |④---⑤-|
⑥⑥④口 |--⑥---|
69
②③口口 |①---|
④⑤①口 |----|
口①⑥⑦ |②③④⑤|
口口⑧⑨ |⑥⑦⑧⑨|
70
⑦口⑧② |①②③④|
口口④⑥ |⑤⑥⑦⑧|
⑤③口口
①口口口

口⑬口⑯
⑪口口口
口口⑩⑫ |⑨⑩⑪⑫|
⑮⑨口⑭ |⑬⑭⑮⑯|
71
⑤⑮⑧⑭ |①②③④|
⑨①⑥④ |⑤⑥⑦⑧|
③⑪⑯⑩ |⑨⑩⑪⑫|
⑬⑦②⑫ |⑬⑭⑮⑯|
72
⑤口⑥口 |①②③④|
口①⑧② |⑤⑥⑦⑧|
③口口口
口⑦④口

口⑮口⑫
⑨口口⑯
口⑬口⑭ |⑨⑩⑪⑫|
⑪口口⑩ |⑬⑭⑮⑯|
73
⑤口④口 |①②③④|
口③⑥口 |⑤⑥⑦⑧|
①口口口
口⑦②⑧

口⑬口⑩
⑨口口⑯
⑮口⑭⑫ |⑨⑩⑪⑫|
⑪口口口 |⑬⑭⑮⑯|
74
③口⑧⑥ |①-②-|
口①口口 |③-④-|
口②口⑤ |⑤-⑥-|
口④口⑦ |⑦-⑧-|
75
⑫⑨口⑧ |①②③④|
⑪⑥⑦④ |⑤⑥⑦⑧|
⑤②③口 |⑨-⑩-|
①口⑩口 |⑪-⑫-|
76
口口口⑥ |①②③④|
口⑦口口 |⑤⑥⑦⑧|
⑤④①⑧
口②口③

⑮⑨⑩口
⑬口口⑭
口口⑯口 |⑨⑩⑪⑫|
⑪口⑫口 |⑬⑭⑮⑯|
77
口⑦口⑥ |①②③④|
口⑤④口 |⑤⑥⑦⑧|
口①口⑧
口③口②

⑮口⑩口
⑪口口⑭
⑬口口口 |⑨⑩⑪⑫|
⑨口⑫⑯ |⑬⑭⑮⑯|
78
口口口口 |①---|
口口①口 |----|
口①①口 |----|
口①口口 |----|
79
③口口④ |①②③④|
口口口② |⑤⑥⑦⑧|
⑦⑤⑧口
①口⑥口

口口口口
⑬⑨⑫⑯
口口口⑩ |⑨⑩⑪⑫|
⑮⑪口⑭ |⑬⑭⑮⑯|
80
①②③④ |①②③④|
⑩⑥口⑨ |--⑤-|
口⑤⑤口 |--⑥⑦|
⑧口⑦⑪ |⑧⑨⑩⑪|
81
口①口② |①--②|
口④②⑥ |--③-|
③⑤④口 |④---|
口③口口 |--⑤⑥|
82
①②③④ |①②③④|
口口⑪口 |--⑤-|
⑤⑩口口 |⑥⑦⑧⑨|
⑨⑧⑦⑥ |--⑩⑪|
83
④①②③ |①②③④|
口⑧⑫⑪ |⑤⑥⑦⑧|
⑥口⑦⑤ |⑨⑩⑪-|
⑬⑩⑭⑨ |⑫⑬⑭-|
84
①②③④ |①②③④|
⑩⑥口⑨ |--⑤-|
口⑤⑤口 |--⑥⑦|
⑧口⑦⑪ |⑧⑨⑩⑪|
85
①①口② |①--②|
口口②口 |--③-|
③口口口
口③口口

⑦口④口
口⑤口⑥
口⑧④⑥ |④-⑤-|
⑤口口口 |⑥-⑦⑧|
86
⑥④⑤② |①-②-|
③口①口 |--③-|
⑤口口⑥ |④---|
④③②① |⑤-⑥-|
87
口口口② |--①-|
②口①口 |②---|
④①③④ |③---|
口③⑤⑤ |④-⑤-|
88
①②③④ |①②③④|
⑩⑥口⑨ |--⑤-|
口⑤⑤⑪ |--⑥⑦|
口⑧⑦口 |⑧⑨⑩⑪|
89
①①口② |①--②|
口⑧②⑩ |--③-|
③⑨口口 |④⑤⑥⑦|
④⑤⑥⑦ |⑧-⑨⑩|
90
①②③④ |①②③④|
口口⑪口 |--⑤-|
⑤⑩口口 |⑥⑦⑧⑨|
⑨⑧⑦⑥ |--⑩⑪|
91
③①口② |①-②③|
口⑦⑪⑩ |④⑤⑥⑦|
⑤口⑥④ |⑧⑨⑩-|
⑫⑨⑬⑧ |⑪⑫⑬-|
92
①②③④ |①②③④|
⑫⑧口⑪ |--⑤⑥|
⑤⑥⑦口 |⑦-⑧⑨|
⑩口⑨⑬ |⑩⑪⑫⑬|
93
③①口② |①--②|
⑧④⑤⑨ |--③-|
③⑩⑩② |④⑤⑥⑦|
口⑥⑦口 |⑧⑨⑩-|
94
③③①① |①--②|
⑧⑦⑥⑤ |---③|
③口口① |--④-|
②④④② |⑤⑥⑦⑧|
95
口⑤①① |①--②|
口口口口 |③④⑤⑥|
口②②①
③口⑥④

⑨口⑭⑫
⑬⑪⑩⑧
⑦口口口 |⑦⑧⑨⑩|
口口口口 |⑪⑫⑬⑭|
96
口③口口 |----|
口③口口 |①---|
口①②② |②---|
①①口② |--③-|
97
①口口口 |①---|
①口口口 |----|
口口口口 |----|
口口口口 |----|

不確定度: 0

最終更新:2017年03月04日 23:47