paranoia
つなまる

EXTREME

Level: 9
BPM: 150
Notes: 563

1
口口口口 |----|
口口口口 |----|
口口口口 |----|
口口口口 |----|
2
口口口口 |①-②-|
口③⑥口 |③---|
①口口④ |④-⑤-|
口②⑤口 |⑥---|
3
③口口⑥ |①-②-|
口①④口 |③---|
②口口⑤ |④-⑤-|
口口口口 |⑥---|
4
口③⑥口 |①-②-|
①口口④ |③---|
口②⑤口 |④-⑤-|
口口口口 |⑥---|
5
⑦②口⑦ |①-②-|
⑤⑧③⑤ |③-④-|
①④⑥① |⑤-⑥-|
口口口口 |⑦-⑧-|
6
⑥③③口 |①-②-|
口口口⑥ |③---|
④口口① |④-⑤-|
口⑤②口 |⑥---|
7
④口口① |①-②-|
①⑤②口 |③---|
口口口口 |④-⑤-|
⑥⑥③③ |⑥---|
8
⑤①①⑦ |①-②-|
⑦⑥⑧⑤ |③-④-|
③口②③ |⑤-⑥-|
口口④口 |⑦-⑧-|
9
⑮⑬⑭⑯ |①②③④|
⑪⑨⑩⑫ |⑤⑥⑦⑧|
⑦⑤⑥⑧ |⑨⑩⑪⑫|
③①②④ |⑬⑭⑮⑯|
10
口口口口 |①-②-|
⑥③③⑥ |③---|
口①④口 |④-⑤-|
口⑤②口 |⑥---|
11
⑤口口② |①-②-|
口④①口 |③---|
⑥③③⑥ |④-⑤-|
口口口口 |⑥---|
12
口口口口 |①-②-|
口③③口 |③---|
⑥④①⑥ |④-⑤-|
口②⑤口 |⑥---|
13
口口②① |①-②-|
口④③② |③-④-|
口口④口
口口口口

口口⑨⑧
⑤口口口
⑦⑥口口 |⑤-⑥-|
口⑦⑤口 |⑦-⑧⑨|
14
口⑥口⑤ |①-②-|
③口①口 |③---|
口口④⑥ |④-⑤-|
②口③口 |⑥---|
15
口口⑥④ |①-②-|
口②口③ |③---|
⑥口⑤口 |④-⑤-|
①③口口 |⑥---|
16
口口⑥④ |①-②-|
①③口口 |③---|
⑥口⑤口 |④-⑤-|
口②口③ |⑥---|
17
①②口口 |①-②-|
②③④⑤ |③-④-|
⑧④⑥⑦ |⑤-⑥-|
口⑤⑦口 |⑦-⑧-|
18
口口①① |①---|
②口口④ |--②-|
口口口口 |③---|
口口③③ |--④-|
19
②口口口 |①---|
口口口④ |--②-|
口口③③ |③---|
①①口口 |--④-|
20
口口口口 |①---|
②口④口 |--②-|
⑤口口口 |③---|
③③①① |④-⑤-|
21
④②③① |①---|
④②③① |②---|
口①②口 |③---|
口③口④ |④---|
22
口①②① |①---|
口②口② |--②-|
口口口口
口口口口

口口口④
③口③口
口③口口 |③---|
口口口口 |--④-|
23
④口口④ |①---|
②口②口 |--②-|
口②③① |③---|
口③口③ |--④-|
24
口口口口 |①---|
口②口② |--②-|
①口②①
口口口口

口口口口
口口④口
④③口口 |③---|
③④③口 |--④-|
25
③①②③ |①---|
①④④② |②---|
口口口口 |③---|
②口口① |④---|
26
②口口口 |①---|
口③口口 |----|
①口口① |----|
口①①口 |②-③-|
27
口口⑦③ |①-②-|
口口口⑥ |③---|
①口⑤口 |④-⑤-|
口②③④ |⑥-⑦-|
28
②①口口 |①---|
口④口⑥ |②---|
③口⑤口 |③-④-|
①口口② |⑤-⑥-|
29
口①①③ |①---|
口④②口 |--②-|
④口口② |③---|
口口③口 |--④-|
30
①口口③ |①---|
口④②口 |--②-|
④口口② |③---|
口①③口 |--④-|
31
①③口口 |①---|
口口②口 |--②-|
④②口④ |③---|
口①③口 |④---|
32
口③口① |①-②-|
④口②口 |③-④-|
口口口口
口口口口

口口口⑦
口口口口
⑥口⑤口 |⑤-⑥-|
⑦⑤口⑥ |⑦---|
33
口口口口 |①②③④|
③①②④ |⑤⑥⑦⑧|
⑦⑤⑥⑧
口口口口

⑪口口口
口⑬⑫口
口口口口 |⑨⑩⑪-|
口⑨⑩口 |⑫-⑬-|
34
口口①① |①---|
②口口口 |②-③-|
口口口口
口口口③

⑥口⑥口
口⑥口口
④④口口 |④---|
口口⑤口 |⑤-⑥-|
35
口③口③ |--①-|
口④③④ |②-③-|
口口口① |----|
⑤②口⑤ |④-⑤-|
36
③⑦③口 |①-②-|
⑦口口⑦ |③-④-|
④①②④ |⑤-⑥-|
⑥口⑤⑥ |--⑦-|
37
口口③④ |----|
口①①口 |①---|
②①①② |②---|
④③②口 |③-④-|
38
①②口口 |①---|
②口⑦⑦ |②-③-|
⑤④口③ |④-⑤-|
⑥⑥③① |⑥-⑦-|
39
①口③③ |①-②-|
②④口口 |③-④-|
口口口口
口口口口

口⑧口口
⑧口口口
⑥口⑤⑦ |⑤-⑥-|
口口⑦口 |⑦-⑧-|
40
②口③口 |①-②-|
口口口③ |③-④-|
④①口口
口④口口

⑧⑧口⑤
口⑦⑦口
口⑦⑦⑥ |⑤-⑥-|
口口⑧⑧ |⑦-⑧-|
41
口口③② |----|
⑤口④⑥ |①-②③|
①⑤⑥口 |④-⑤-|
⑤⑦⑦⑥ |⑥-⑦-|
42
⑦③⑦② |①---|
③⑦③④ |②-③-|
①⑤⑥① |④-⑤-|
口口口口 |⑥-⑦-|
43
口③口口 |--①-|
③口③口 |②-③-|
①口口口
①口②②

④口④口
口口口口
⑤口口⑤ |----|
口口口口 |④-⑤-|
44
口口口口 |①-②-|
口③口③ |③-④-|
口口口口
④①②④

⑥⑦口⑥
⑦口口口
口口⑤⑦ |⑤-⑥-|
口口⑦口 |--⑦-|
45
口口①口 |----|
④②①③ |①---|
③①②④ |②---|
口①口口 |③-④-|
46
①①②② |①---|
口③口口 |②-③-|
口口③口
口口①①

⑦口口口
口口⑥⑤
④⑥口口 |④-⑤-|
口口⑥口 |⑥-⑦-|
47
口口②④ |①-②-|
口③口口 |③-④-|
③口口①
口③口口

⑧⑥口口
⑤口⑦口
口口口⑦ |⑤-⑥-|
口口⑦口 |⑦-⑧-|
48
口口④② |①-②-|
口③口① |③-④-|
③口口口
口③口口

⑧⑧口口
⑦口⑤⑦
口⑦⑦⑥ |⑤-⑥-|
口口⑧⑧ |⑦-⑧-|
49
口口①口 |----|
口⑦口口 |①-②③|
②口口③ |④⑤⑥-|
④⑥口⑤ |⑦---|
50
①口②① |①---|
口③口口 |----|
口口口口 |②---|
口口口口 |③---|
51
④口口⑤ |①---|
口口口③ |②---|
口口①口 |③---|
口②口口 |④-⑤-|
52
口③口口 |①-②-|
口口①口 |③---|
口②口口 |----|
口④④口 |④---|
53
口口口口 |----|
口口口口 |----|
口口口口 |----|
口口口口 |----|
54
②①①口 |①---|
口口口③ |----|
口口口口 |②---|
口口口口 |③---|
55
口口口口 |①---|
口口口口 |②---|
①口④口 |③---|
口③口② |④---|
56
③①口口 |①---|
④③口② |--②-|
②口③④ |③---|
口口口③ |--④-|
57
②口口① |①---|
口③①③ |--②-|
③①③口 |③---|
①口口② |----|
58
口②①① |①---|
口口③口 |----|
口口口口 |②---|
口口口口 |③---|
59
⑤口口口 |①---|
口②⑤④ |②---|
④⑤③① |③---|
口口口⑤ |④-⑤-|
60
口口①口 |----|
口②口口 |----|
口口口口 |①---|
口口口口 |②---|
61
口口口⑤ |①---|
④⑤②口 |②---|
①③⑤④ |③---|
⑤口口口 |④-⑤-|
62
口口①口 |----|
口口②口 |----|
口口口口 |①---|
口口口口 |②---|
63
口口口口 |①---|
口③口④ |②---|
④①③口 |③---|
口②口口 |④---|
64
①口口口 |----|
口口口口 |①---|
口口口口 |②---|
口③②① |③---|
65
口口口口 |①---|
②③④口 |②---|
口口口口 |③---|
①口口口 |④---|
66
口口口口 |①---|
口口口① |②---|
口④③② |③---|
口口口口 |④---|
67
口口口口 |①---|
口口口口 |②---|
①口口口 |③---|
②③④口 |④---|

不確定度: 0

最終更新:2017年08月03日 01:58