コイノチカラ
石阪久美子

BASIC

Level: 3
BPM: 162
Notes: 231

1
口口口口 |----|
口口口口 |----|
口口口口 |----|
口口口口 |----|
2
口口口口 |----|
口口口口 |----|
口口口口 |----|
口口口口 |----|
3
口口口口 |①---|
口口口口 |----|
①②口口 |②---|
口口口口 |----|
4
口口口口 |①---|
口口口口 |----|
口口①口 |----|
口口口口 |----|
5
口口口口 |①---|
口①①口 |----|
口②②口 |②---|
口③④口 |③-④-|
6
口口口口 |----|
口口口口 |----|
口口口口 |----|
口口口口 |----|
7
口口口口 |①---|
口口口口 |----|
①②口口 |②---|
口口口口 |----|
8
口口口口 |①---|
口口口口 |----|
口口①口 |----|
口口口口 |----|
9
口②③口 |①-②-|
①口口口 |--③-|
口口口口 |----|
口口口口 |----|
10
口口口口 |①-②-|
口口口口 |③---|
口口口① |----|
口③②口 |----|
11
口口口口 |①---|
口口口口 |----|
口口②口 |②---|
口①口口 |----|
12
口口②口 |①---|
口①口口 |----|
口口口口 |②---|
口口口口 |----|
13
口口口口 |①---|
口口口口 |----|
口②口口 |②---|
口口①口 |----|
14
口②口口 |①---|
口口①口 |----|
口口口口 |②---|
口口口口 |----|
15
口口口口 |①---|
②口口口 |----|
口①口口 |②---|
口口口口 |----|
16
口口①口 |①---|
口口口② |----|
口口口口 |②---|
口口口口 |----|
17
口口口口 |①---|
口①②口 |----|
口口口口 |②---|
口口口口 |----|
18
口①①口 |①---|
口口口口 |----|
口②②口 |②---|
口口口口 |----|
19
口口①① |①---|
口口口口 |----|
口口口口 |----|
口口口口 |----|
20
口口口口 |①---|
口①①口 |----|
口口口口 |----|
口口口口 |----|
21
口口口口 |①---|
口口口口 |----|
①①口口 |----|
口口口口 |----|
22
口口口口 |----|
口口口口 |----|
口口口口 |----|
口口口口 |----|
23
口口口口 |①---|
口口口口 |----|
口口①① |----|
口口口口 |----|
24
口口口口 |①---|
口①①口 |----|
口口口口 |----|
口口口口 |----|
25
①①口口 |①---|
口口口口 |----|
口口口口 |----|
口口口口 |----|
26
口口口口 |----|
①②③④ |--①-|
口口口口 |②-③-|
口口口口 |④---|
27
口口口口 |①---|
口口口口 |----|
口口②口 |②---|
口①口口 |----|
28
口口②口 |①---|
口①口口 |----|
口口口口 |②---|
口口口口 |----|
29
口口口口 |①---|
口口口口 |----|
口②口口 |②---|
口口①口 |----|
30
口②口口 |①---|
口口①口 |----|
口口口口 |②---|
口口口口 |----|
31
口口口口 |①---|
②口口口 |----|
口①①口 |②---|
口口口口 |----|
32
口①①口 |①---|
口口口② |----|
口口口口 |②---|
口口口口 |----|
33
口口口口 |①---|
口口口② |----|
口①①口 |②---|
口口口口 |----|
34
口①①口 |①---|
②口口口 |----|
口口口口 |②---|
口口口口 |----|
35
口口口口 |①-②-|
口口⑤④ |③---|
①②③口 |④-⑤-|
口口口口 |----|
36
口口①① |①---|
口口口口 |----|
口口口口 |----|
口口口口 |----|
37
口口口口 |①---|
口①①口 |----|
口口口口 |----|
口口口口 |----|
38
口口口口 |①---|
口口口口 |----|
①①口口 |----|
口口口口 |----|
39
口口口口 |----|
口口口口 |----|
口口口口 |----|
口口口口 |----|
40
口口口口 |①---|
口口口口 |----|
口口①① |----|
口口口口 |----|
41
口口口口 |①---|
口①①口 |----|
口口口口 |----|
口口口口 |----|
42
①①口口 |①---|
口口口口 |----|
口口口口 |----|
口口口口 |----|
43
口口口口 |----|
口口口口 |--①-|
①②③④ |②-③-|
口口口口 |④---|
44
口口①口 |①---|
口口①口 |----|
口口口口 |----|
口口口口 |----|
45
口口口口 |①---|
口①口口 |----|
口①口口 |----|
口口口口 |----|
46
口口口口 |①---|
口口口口 |----|
①口口口 |----|
①口口口 |----|
47
口口口口 |----|
口口口口 |----|
口口口口 |----|
口口口口 |----|
48
口口口口 |①---|
口口口口 |----|
口①口口 |----|
口①口口 |----|
49
口口口口 |①---|
口口①口 |----|
口口①口 |----|
口口口口 |----|
50
口口口① |①---|
口口口① |----|
口口口口 |----|
口口口口 |----|
51
口口口口 |----|
②①①② |----|
②①①② |①---|
口口口口 |②---|
52
口口口口 |①---|
口口口口 |----|
口②②口 |②---|
口①①口 |----|
53
口②②口 |①---|
口①①口 |----|
口口口口 |②---|
口口口口 |----|
54
口口口口 |①---|
②②④④ |②---|
①①③③ |③---|
口口口口 |④---|
55
口①①口 |①---|
口②②口 |----|
口口口口 |②---|
口口口口 |----|
56
口口口口 |①---|
口口口口 |----|
口①①口 |②---|
口②②口 |----|
57
口①①口 |①---|
④口口② |②---|
④口口② |③---|
口③③口 |④---|
58
①②③④ |①---|
口口口口 |②---|
口口口口 |③---|
口口口口 |④---|
59
口口口口 |①---|
①②③④ |②---|
口口口口 |③---|
口口口口 |④---|
60
①口口口 |①---|
口②口口 |②---|
口口③口 |③---|
口口口④ |④---|
61
口口口① |①---|
口口②口 |②---|
口③口口 |③---|
④口口口 |④---|
62
①①②② |①---|
③③④④ |②---|
口口口口 |③---|
口口口口 |④---|
63
口口口口 |①---|
口口口口 |②---|
①①②② |③---|
③③④④ |④---|
64
口口口口 |①---|
口①②口 |②---|
口口口口 |----|
口口口口 |----|
65
口口口口 |①---|
口①①口 |----|
口③②口 |②---|
口口口口 |③---|
66
①①口口 |①---|
①①口口 |----|
口口口口 |----|
口口口口 |----|
67
口口①① |①---|
口口口① |----|
口口口口 |----|
口口口口 |----|
68
口口口口 |①---|
口口口口 |----|
①口口口 |----|
口①口口 |----|
69
口口口口 |①---|
口口口口 |----|
口口口口 |----|
口口口① |----|
70
口口口口 |①---|
口②②口 |②---|
口①①口 |----|
口口口口 |----|
71
口口口口 |①---|
口口口口 |----|
口①②口 |②---|
①口口② |----|
72
口②②口 |①---|
口①①口 |----|
口口口口 |②---|
口口口口 |----|
73
①口口② |①---|
口①②口 |----|
口口口口 |②---|
口口口口 |----|
74
口口口口 |①---|
口口口口 |----|
口①①口 |----|
口口口口 |----|
75
口口口口 |①---|
口口口口 |----|
①口口② |②---|
口①②口 |----|
76
口②①口 |①---|
②口口① |----|
口口口口 |②---|
口口口口 |----|
77
口口口口 |①---|
口口口口 |----|
口①口口 |②---|
①②口口 |----|
78
口口口口 |①---|
口口口口 |----|
口口①口 |②---|
口口②① |----|
79
口①①口 |①---|
口②②口 |----|
口口口口 |②---|
口③③口 |--③-|


不确定度: 0

最終更新:2012年11月10日 15:18