Two souls -toward the truth-
fripSide

EXTREME

Level: 9
BPM: 165
Notes: 607

1
口口口口 |----|
口口口口 |----|
口口口口 |----|
口口口口 |----|
2
③④口口 |①-②-|
口口口口 |--③-|
④③口① |--④-|
口口②口 |----|
3
③④口口 |①-②-|
口口口口 |--③-|
④③口① |--④-|
口口②口 |----|
4
③④口口 |①-②-|
口⑤⑤口 |--③-|
④③口① |--④-|
口口②口 |--⑤-|
5
④口口② |--①-|
口口口口 |②-③-|
⑤⑥⑦⑧ |④---|
口③①口 |⑤⑥⑦⑧|
6
④①①② |①---|
①④口① |----|
口口口口 |②-③-|
口③口口 |--④-|
7
口口口② |----|
口口②口 |①---|
口③①口 |②---|
③口口① |③---|
8
口口口口 |①---|
口①口口 |②---|
②口口①
口口②口

口口③口
③⑤⑤口
口口口④ |③---|
口④口口 |④-⑤-|
9
①口口口 |--①-|
口口④② |②-③-|
③⑤口口 |--④-|
口口⑥口 |⑤-⑥-|
10
④口②② |①---|
口④口口 |②---|
口③①① |③-④-|
③⑤⑤口 |--⑤-|
11
口口④③ |--①-|
口口⑤② |②-③-|
口口⑥① |--④-|
口口口口 |⑤-⑥-|
12
口口口⑥ |①---|
⑤口口② |②---|
口口口④ |③-④-|
③①口口 |⑤-⑥-|
13
口口口口 |--①-|
口④④口 |②-③-|
⑤⑥⑦⑧ |--④-|
口①②③ |⑤⑥⑦⑧|
14
④①①② |①---|
①④口① |----|
口口口口 |②-③-|
口③口口 |--④-|
15
口口口③ |----|
口口③口 |①---|
口②①口 |②---|
②口口① |③---|
16
口①口口 |①---|
口口口① |②---|
口②口口
口口口②

口④④口
③口口口
口口③口 |③---|
口⑤⑤口 |④-⑤-|
17
口口口① |--①-|
②④口口 |②-③-|
口口⑤③ |--④-|
口⑥口口 |⑤-⑥-|
18
⑤口①① |①---|
口④口口 |----|
口口③口 |②-③-|
口口口② |④-⑤-|
19
口口②① |--①-|
③口口口 |②-③-|
口口口⑥ |--④-|
口④⑤口 |⑤-⑥-|
20
④①④① |①-②-|
口口口口 |③-④-|
②口口口
口口口③

口口口⑦
口口⑦口
口口⑤⑦ |--⑤-|
口⑥口口 |⑥-⑦-|
21
①②②口 |--①-|
口①口口 |--②-|
①口口口 |--③-|
口③③口 |----|
22
口口口口 |①---|
口口口口 |②---|
口口②①
口口口口

③口口口
口④⑤口
口口口⑥ |③-④-|
口口口口 |⑤-⑥-|
23
口口口口 |--①-|
口口口口 |②-③-|
口①②口 |----|
口③口口 |----|
24
口口口口 |①---|
口口口口 |②---|
①②口口
口口口口

口口口③
口⑤④口
⑥口口口 |③-④-|
口口口口 |⑤-⑥-|
25
口口口口 |--①-|
口口口口 |②-③-|
口②①口 |----|
口口③④ |--④-|
26
口口口口 |①-②-|
口口口④ |③-④-|
口③口② |----|
⑤①口口 |--⑤-|
27
口口口口 |①-②-|
④口⑤口 |③-④-|
②口③口 |----|
口口①口 |--⑤-|
28
口口口⑤ |①-②-|
口①口口 |③-④-|
口④④口 |----|
口③②口 |--⑤-|
29
①口口口 |①---|
口口②口 |--②-|
口口口口 |③---|
口③口口 |----|
30
口口口口 |①---|
口口口口 |②---|
②②①①
口口口口

③口口口
口④⑤口
口口口⑥ |③-④-|
口口口口 |⑤-⑥-|
31
口口口口 |--①-|
口口口口 |②-③-|
口①②口 |----|
口③口口 |----|
32
口口口③ |①---|
口⑤④口 |②---|
⑥口②② |③-④-|
口口①① |⑤-⑥-|
33
③口口③ |--①-|
口口口④ |②-③-|
口口口口 |----|
②口口① |--④-|
34
口口口口 |①-②-|
⑤②口口 |③-④-|
③口①口 |----|
口④④口 |--⑤-|
35
口口口口 |①-②-|
口口②口 |③-④-|
口①⑤③ |----|
口④④口 |--⑤-|
36
口①①口 |①---|
口④④口 |②---|
③口口② |③---|
口⑤⑤口 |④-⑤-|
37
②口口① |--①-|
③④④③ |②-③-|
③②①③ |④---|
⑤口口⑤ |⑤---|
38
①口口② |①-②-|
口口口口 |③-④-|
③口①口
口口④口

⑦口口⑦
口口口⑤
口⑥⑥口 |⑤---|
口口口口 |⑥-⑦-|
39
口口①口 |--①-|
口②口口 |②-③-|
口④④口 |④---|
口口③口 |----|
40
口口口口 |①-②-|
②口口口 |③-④-|
口④口①
口①口③

⑤口口口
⑦⑥⑥⑦
口口口口 |⑤---|
口口口口 |⑥-⑦-|
41
口口①口 |--①-|
口④④口 |②-③-|
口②口口 |④---|
口口③口 |----|
42
②口口① |①-②-|
口口口口 |③-④-|
口①口③
口④口口

⑦口口⑦
⑤⑥⑥口
口口口口 |⑤---|
口口口口 |⑥-⑦-|
43
口口①口 |--①-|
④口口④ |②-③-|
口②口口 |④---|
口口③口 |----|
44
①口口② |①-②-|
口口口口 |③-④-|
③口①口
口口④口

口⑦⑦口
口口口⑤
口⑥⑥口 |⑤---|
口口口口 |⑥-⑦-|
45
②④④② |--①-|
口口口口 |②-③-|
口⑤⑤口 |--④-|
③①①③ |⑤---|
46
③口口① |①-②-|
⑦③①⑦ |③-④-|
口⑥⑤口 |⑤---|
⑥④②⑤ |⑥-⑦-|
47
③口③⑤ |--①-|
口口⑥口 |②-③-|
口⑦②口 |④-⑤-|
口①④④ |⑥-⑦-|
48
⑥口口口 |①---|
口⑤口口 |②---|
口口④口 |③-④-|
①②②③ |⑤-⑥-|
49
口口口① |--①-|
④口②口 |②-③-|
口⑤口③ |--④-|
⑥口口口 |⑤-⑥-|
50
①口①口 |①---|
口②口② |②---|
口口口口
口口口口

口口⑤口
④口④口
③口③口 |③-④-|
⑤口口口 |--⑤-|
51
③口口③ |--①-|
⑤⑥⑦口 |②-③-|
口④④① |④-⑤-|
口口②口 |⑥-⑦-|
52
③口⑦④ |①---|
口口口① |②-③-|
⑤口口⑥ |④-⑤-|
⑦②②口 |⑥-⑦-|
53
③①口② |--①-|
口口口口 |--②-|
④③②④ |③---|
口②③① |④---|
54
口①①口 |①-②-|
①②口① |③-④-|
口口③口
口口口④

⑤⑥口⑤
口口口口
口口口⑥ |--⑤-|
口口口口 |--⑥-|
55
口口①⑤ |--①-|
口④口口 |②-③-|
②口④口 |④---|
⑤口口③ |⑤---|
56
口④④口 |①-②-|
口口①口 |③-④-|
口②口口
口口③口

口口口口
⑤⑥⑥⑤
口口口口 |--⑤-|
口口口口 |--⑥-|
57
③口口③ |--①-|
口口口口 |②-③-|
口①②口
口②①口

口⑤④口
⑤口口④
口口口口 |--④-|
口口⑥⑥ |⑤-⑥-|
58
④口④③ |①-②-|
⑦口②⑦ |③-④-|
⑤①口⑥ |⑤-⑥-|
⑧⑤⑥口 |⑦-⑧-|
59
③④口④ |①-②-|
⑦②⑤⑥ |③-④-|
⑥⑤①⑦ |⑤-⑥-|
口口口口 |⑦---|
60
⑥⑥⑤⑤ |①-②-|
口口口口 |③-④-|
⑥⑥⑤⑤ |--⑤-|
③④②① |--⑥-|
61
④口口④ |--①-|
口①①口 |--②-|
口口口口 |③-④-|
③②②③ |----|
62
口①①口 |①-②-|
①口②① |③-④-|
口③口口
④口口口

⑤⑦口⑤
口口口口
口口⑦口 |--⑤-|
口⑥⑥口 |⑥-⑦-|
63
⑤口①口 |--①-|
②口④口 |②-③-|
口④口③ |④---|
口口口⑤ |⑤---|
64
⑥④④⑥ |①-②-|
口①口口 |③-④-|
口口②口 |--⑤-|
⑤③口⑤ |--⑥-|
65
口口口口 |--①-|
口②①口 |②-③-|
②口口①
口③③口

口口⑦⑥
④口口④
口口⑥⑦ |④-⑤-|
⑤口口⑤ |⑥-⑦-|
66
①⑥⑥⑧ |①-②-|
口⑦①③ |③-④-|
②③⑦口 |⑤-⑥-|
⑧⑤⑤④ |⑦-⑧-|
67
②口口口 |①-②-|
③口①口 |③-④-|
④①口口
口口口口

口口口口
口口⑦⑥
口⑧口口 |⑤-⑥-|
口口口⑤ |⑦-⑧-|
68
①口口④ |①-②-|
口②口口 |③-④-|
口口③口
口①④口

⑧口⑥口
⑤口口⑤
口⑦口口 |⑤-⑥-|
口⑧口口 |⑦-⑧-|
69
口口口① |--①-|
口③②口 |--②-|
④⑤⑥⑦ |③---|
③口①② |④⑤⑥⑦|
70
④①①② |①---|
①④口① |----|
口口口口 |②-③-|
口③口口 |--④-|
71
口口口② |----|
口口②口 |①---|
口③①口 |②---|
③口口① |③---|
72
口口口口 |①---|
口①口口 |②---|
②口口①
口口②口

口口③口
③⑤⑤口
口口口④ |③---|
口④口口 |④-⑤-|
73
①口口口 |--①-|
口口④② |②-③-|
③⑤口口 |--④-|
口口⑥口 |⑤-⑥-|
74
④口②② |①---|
口④口口 |②---|
口③①① |③-④-|
③⑤⑤口 |--⑤-|
75
口口④③ |--①-|
口口⑤② |②-③-|
口口⑥① |--④-|
口口口口 |⑤-⑥-|
76
口口口⑥ |①---|
⑤口口② |②---|
口口口④ |③-④-|
③①口口 |⑤-⑥-|
77
口口口口 |--①-|
口④④口 |②-③-|
口口口口 |--④-|
口①②③ |----|

不確定度: 0

最終更新:2017年08月03日 01:58