HERO
ソナーポケット

EXTREME

Level: 8
BPM: 130
Notes: 458

1
口口口口 |----|
口口口口 |----|
口口口口 |----|
口口口口 |----|
2
口口口口 |①---|
口④③口 |----|
口②⑤口 |--②③|
①①①① |④⑤--|
3
②口口② |①---|
口口口口 |----|
①③③① |②--③|
口口口口 |----|
4
口口口口 |①---|
口④③口 |----|
口②⑤口 |--②③|
①口口① |④⑤--|
5
②口口② |①---|
口口口口 |----|
①③③① |②--③|
口口口口 |----|
6
④⑤口口 |①②③④|
口③口口 |⑤---|
②口口口
①①①①

口口口口
口⑨⑧⑥
口⑦⑩口 |⑥-⑦⑧|
口口口口 |⑨⑩--|
7
③口口③ |①---|
②口口④ |②---|
①口口① |③---|
口口口口 |④---|
8
口口⑤④ |①②③④|
口口③口 |⑤---|
口口口②
①①①①

口口口口
⑥⑨⑧口
口⑦⑩口 |⑥-⑦⑧|
口口口口 |⑨⑩--|
9
口口口② |①---|
口口口口 |②---|
①口口①
口口口口

⑨⑦⑧⑩
③⑤⑥④
口口口口 |③④⑤⑥|
口口口口 |⑦⑧⑨⑩|
10
口口口口 |①---|
口③口口 |--②-|
②⑥⑤④ |③-④-|
①①①① |⑤-⑥-|
11
口③口口 |①---|
口口口口 |②-③-|
②口口口
口口①口

口口口口
口口口口
口口口口 |--④-|
口口④口 |----|
12
口口口口 |----|
口②口口 |--①-|
①⑤④③ |②-③-|
口口口口 |④-⑤-|
13
①口口② |①---|
口⑤③口 |--②③|
口④⑥口 |④---|
口口口口 |--⑤⑥|
14
口口口口 |①---|
口③口口 |--②-|
②⑥⑤④ |③-④-|
口口口① |⑤-⑥-|
15
口③口口 |①---|
口口口口 |②-③-|
②口口口
口口①口

口口口口
口口口口
口口口口 |--④-|
口口④口 |----|
16
口口口口 |----|
口口②口 |--①-|
③④⑤① |②-③-|
口口口口 |④-⑤-|
17
②口口① |①---|
口③口口 |--②③|
⑤口④口 |④---|
口口口口 |--⑤-|
18
①口②③ |①-②-|
口口③② |③-④-|
口口④口 |⑤-⑥-|
⑤⑥⑦④ |⑦---|
19
②①③④ |--①-|
①②④③ |②-③-|
口⑥口口 |④-⑤-|
口⑤口口 |⑥---|
20
口口口口 |--①-|
⑦口①② |②-③-|
⑥⑤②① |④-⑤-|
③④口口 |⑥-⑦-|
21
②口①① |①---|
口②口④ |②-③-|
④⑤③口 |④---|
口⑥口③ |⑤-⑥-|
22
①口口口 |--①-|
⑦⑤④② |②-③-|
口③口口 |④-⑤-|
口口⑥口 |⑥-⑦-|
23
口口口① |①-②-|
⑤④口口 |③-④⑤|
口②口口
口口口③

⑦口口⑧
口口口口
口⑨⑥口 |⑥-⑦-|
口口口口 |⑧-⑨-|
24
⑪⑬⑭⑫ |--①②|
⑤⑦⑧⑥ |③④⑤⑥|
③⑨⑩④ |⑦⑧⑨⑩|
①口口② |⑪⑫⑬⑭|
25
口口口口 |①②③④|
①口口② |⑤⑥⑦⑧|
③口口④
⑤⑦⑧⑥

⑮⑮⑮⑮
⑬⑪⑫⑭
口⑨⑩口 |⑨⑩⑪⑫|
口口口口 |⑬⑭⑮-|
26
口口口口 |----|
①口口① |----|
口口口口 |----|
口②②口 |①-②-|
27
①④①④ |①-②③|
口口口口 |④-⑤⑥|
口⑤②口
③口口⑥

⑩口⑩口
⑦口口⑦
口口⑪⑧ |⑦-⑧⑨|
⑫⑨口口 |⑩-⑪⑫|
28
口①口① |①-②③|
口④④口 |④-⑤-|
口②口口
口⑤⑤③

口口口口
⑦⑧口口
⑥口口⑥ |⑥---|
⑦口口口 |⑦-⑧-|
29
③口口口 |①-②-|
口口口① |③-④-|
③④口口
口口②①

口口⑥⑤
⑦口口⑦
口口口⑤ |⑤-⑥-|
口⑧⑧口 |⑦-⑧-|
30
②口②口 |--①-|
④②①④ |②---|
口①口① |③---|
③⑤⑤③ |④-⑤-|
31
④①④① |①-②③|
口口口口 |④-⑤⑥|
口②⑤口
⑥口口③

口⑩口⑩
⑦口口⑦
⑧⑪口口 |⑦-⑧⑨|
口口⑨⑫ |⑩-⑪⑫|
32
①④①④ |①-②-|
口口口口 |③-④-|
口口②②
③③口口

口口口口
⑤⑤⑤⑤
⑦⑥⑥口 |⑤---|
口口⑦口 |⑥-⑦-|
33
②口口② |①---|
口口③口 |②-③-|
口口口口
①③口①

口口口⑦
⑤④口口
⑥口口口 |④-⑤-|
⑦口④口 |⑥-⑦-|
34
①口口口 |--①-|
口②②⑦ |②-③-|
③④⑤⑥ |④-⑤-|
口口口① |⑥-⑦-|
35
口①①口 |①---|
②口口口 |②---|
②②口口
②②口口

④④口⑤
口口口③
口口③口 |③---|
口口③口 |④-⑤-|
36
口口口口 |①-②-|
①①②口 |③-④-|
③③口①
口口④口

⑦⑦⑧⑧
口口口口
口口⑥⑦ |⑤-⑥-|
⑤⑤口⑤ |⑦-⑧-|
37
④④③③ |----|
①口口② |①---|
①①②口 |②---|
①①②口 |③-④-|
38
⑥⑥⑥⑥ |--①-|
④④⑤① |②-③-|
②②④口 |④-⑤-|
口口③② |⑥---|
39
③③②口 |----|
①②①② |①---|
①①②口 |②---|
①口①④ |③-④-|
40
口口口口 |①-②-|
口口口④ |③-④-|
③③②③
①①①口

⑤⑤⑥⑤
口⑦⑦口
口口口口 |⑤-⑥-|
口⑦⑦口 |⑦---|
41
①①口口 |----|
①口口口 |①---|
①①口口
①口口口

④④②②
口③②口
口口③② |②---|
口口②② |③-④-|
42
口口口口 |--①-|
①口②① |②-③-|
口②口口
口③③口

⑦口口⑦
⑥口口⑥
⑤口口⑤ |④-⑤-|
④口口④ |⑥-⑦-|
43
⑤①①⑥ |①---|
④③②口 |--②③|
⑤口口⑥ |④--⑤|
口口口口 |--⑥-|
44
口口口口 |①---|
口②③④ |--②③|
⑦⑥⑤口 |④-⑤⑥|
口①①口 |⑦---|
45
①口口① |①---|
口②③口 |--②③|
口口口口
口口口口

⑥口口⑤
口口口④
⑥口口⑤ |④--⑤|
口口口口 |--⑥-|
46
口口口口 |①---|
口③②口 |--②③|
④④④④ |④---|
口①①口 |----|

不確定度: 0

最終更新:2017年08月03日 01:45