Dreamland。feat. RED RICE(from 湘南乃風), CICO(from BENNIE K)
ハジ→

EXTREME

Level: 8
BPM: 141
Notes: 617

1
口口口口 |----|
口口口口 |----|
口口口口 |----|
口口口口 |----|
2
⑤口④口 |①-②-|
⑥口③口 |③-④-|
口②口⑦ |⑤-⑥-|
口①口⑧ |⑦-⑧-|
3
口⑤口④ |①-②-|
口⑥口③ |③-④-|
②口⑦口 |⑤-⑥-|
①口⑧口 |⑦-⑧-|
4
⑤口④口 |①-②-|
⑥口③口 |③-④-|
口②口⑦ |⑤-⑥-|
口①口⑧ |⑦-⑧-|
5
口⑤口④ |①-②-|
口⑥口③ |③-④-|
②口⑦口 |⑤-⑥-|
①口⑧口 |⑦-⑧-|
6
口④⑤⑤ |①-②③|
口口③口 |④-⑤-|
口②口口
①口口①

⑥口口口
⑥⑦口口
口口⑧口 |⑥-⑦⑧|
口⑨⑩⑩ |⑨-⑩-|
7
⑥④⑤⑤ |①-②③|
⑥⑦口③ |④-⑤-|
①②口⑧ |⑥-⑦⑧|
①⑨⑩⑩ |⑨-⑩-|
8
口口口② |①-②-|
口③口口 |③-④-|
①口口④
①口口口

⑦口口⑧
口口口⑥
口口口口 |⑤-⑥-|
口⑤口口 |⑦-⑧-|
9
口③②口 |①②③④|
⑦口⑥口 |⑤⑥⑦⑧|
口①④口
口⑤⑧口

⑪口口⑩
口⑨口⑭
口口⑯⑫ |⑨⑩⑪⑫|
⑬⑮口口 |⑬⑭⑮⑯|
10
口①①口 |①---|
口口口口 |②-③-|
口③口③
口口②②

⑤口⑤⑥
口④④⑥
⑥口口口 |④-⑤-|
⑥口口口 |⑥---|
11
口③③口 |----|
①④①④ |①-②-|
口⑤⑤口 |③-④-|
⑥②⑥② |⑤-⑥-|
12
①②口① |①---|
口②②② |--②-|
①②②①
口口口口

④口⑤⑤
④口口口
口口口口 |--③-|
③③口口 |④-⑤-|
13
⑥③④⑥ |①---|
③口口④ |②---|
口⑤⑤① |③-④-|
口②②① |⑤-⑥-|
14
⑤④口④ |----|
⑤③③口 |①-②-|
②口②⑤ |③-④-|
①①口⑤ |⑤---|
15
口③③口 |----|
④①④① |①-②-|
口⑤⑤口 |③-④-|
②⑥②⑥ |⑤-⑥-|
16
①②口① |①---|
口②②② |--②-|
①②②①
口口口口

口口口口
口口口口
④口口③ |--③-|
口④③口 |-④--|
17
②口口② |①---|
口①①口 |②---|
口口口口
口口口口

口口口口
口口⑤口
口口④口 |③-④-|
口口③口 |⑤---|
18
①口②① |①---|
①②口① |②---|
③口口④ |③-④-|
口⑤口口 |--⑤-|
19
口口④口 |①-②-|
口口③口 |③-④-|
口口②口
口口①口

⑤口口口
口⑤口⑥
⑦口⑥口 |--⑤-|
口⑦口口 |⑥-⑦-|
20
口口①口 |----|
口①口口 |①---|
③口口② |②-③-|
口口④口 |--④-|
21
口④口⑦ |①-②-|
口③⑦⑥ |③-④-|
口②⑥⑤ |--⑤-|
口①⑤口 |⑥-⑦-|
22
口口③口 |--①-|
口②口⑥ |②-③-|
①口⑤口 |--④-|
口④口口 |⑤-⑥-|
23
口口口④ |--①-|
③口④口 |--②-|
口③口② |--③-|
①口②① |--④-|
24
①口口口 |--①-|
②口口口 |②-③-|
③口口口 |--④-|
⑤④⑤④ |--⑤-|
25
④口口③ |--①-|
口⑤②口 |②-③-|
口①⑥口 |④-⑤-|
口口口⑦ |⑥-⑦-|
26
①③①③ |----|
口口口口 |--①-|
口口口口 |--②-|
口②口② |--③-|
27
口口口口 |--①-|
口②②口 |--②-|
口口口口
①口①口

口口口口
③口口③
④口口④ |--③-|
⑤口口⑤ |④-⑤-|
28
口口⑤口 |----|
口口④口 |--①-|
口②③口 |②-③-|
口①口口 |④-⑤-|
29
①口口口 |①-②-|
②口口口 |③-④-|
③口口口
④口口口

⑧口口⑤
口⑧口⑥
口口口⑦ |⑤-⑥-|
口口口口 |⑦-⑧-|
30
口口口⑤ |----|
③④⑤口 |--①-|
②口口口 |②-③-|
①口口口 |④-⑤-|
31
口⑤⑤④ |--①-|
③口④② |--②-|
①③②口 |③-④-|
口①口口 |--⑤-|
32
⑥口口口 |--①-|
口口③⑤ |--②-|
④②口口 |③-④-|
口①①口 |⑤-⑥-|
33
⑥口④⑥ |--①-|
⑥③口⑥ |②-③-|
口⑤②口 |④-⑤-|
口①口口 |--⑥-|
34
口口口口 |----|
口口口口 |----|
口口口口 |①---|
①①①① |----|
35
口①口① |①---|
②①①① |----|
②口①③ |②---|
口口口③ |③---|
36
口口①① |①---|
②口口① |②---|
②②口口 |③---|
③③③③ |----|
37
③①①口 |①---|
③①口口 |--②-|
口①①④ |③---|
口口②④ |④---|
38
口口①① |①---|
②口口① |②---|
②②口口
口口口口

③③口口
口口口口
口④口口 |③---|
口口口口 |--④-|
39
③③口口 |①---|
口口口口 |②-③-|
口口②④ |----|
口口①① |--④-|
40
口口口口 |①-②-|
口口口口 |③-④-|
口口口口
④③②①

⑤口口口
口⑥口口
口口⑦口 |⑤-⑥-|
口口口⑧ |⑦-⑧-|
41
口口③① |①②③④|
⑧口口⑤ |⑤⑥⑦⑧|
口②口口
⑥④⑦口

⑩口口⑬
口口口⑮
⑭⑫口⑨ |⑨⑩⑪⑫|
⑯口口⑪ |⑬⑭⑮⑯|
42
口①①口 |①---|
口口口口 |②-③-|
口③口③
口口②②

⑤口⑤⑥
口④④⑥
⑥口口口 |④-⑤-|
⑥口口口 |⑥---|
43
口③③口 |----|
①④①④ |①-②-|
口⑤⑤口 |③-④-|
⑥②⑥② |⑤-⑥-|
44
①②口① |①---|
口②②② |--②-|
①②②①
口口口口

④口⑤⑤
④口口口
口口口口 |--③-|
③③口口 |④-⑤-|
45
⑥③④⑥ |①---|
③口口④ |②---|
口⑤⑤① |③-④-|
口②②① |⑤-⑥-|
46
⑤④口④ |----|
⑤③③口 |①-②-|
②口②⑤ |③-④-|
①①口⑤ |⑤---|
47
口③③口 |----|
④①④① |①-②-|
口⑤⑤口 |③-④-|
②⑥②⑥ |⑤-⑥-|
48
①②口① |①---|
口②②② |--②-|
①②②①
口口口口

口口口口
口口口口
④口口③ |--③-|
口④③口 |-④--|
49
②口口② |①---|
口①①口 |②---|
口口口口
口口口口

口口口口
口口⑤口
口口④口 |③-④-|
口口③口 |⑤---|
50
①②⑤① |①---|
①口口① |②③④⑤|
口口③口
④口口口

口口口口
口口⑨⑫
⑥⑧口⑪ |⑥⑦⑧⑨|
口⑩⑩⑦ |⑩-⑪⑫|
51
②口口① |①--②|
口②口口 |--③-|
口口口口
口③③口

⑦⑦口⑥
口口口口
④口⑤口 |④-⑤⑥|
口口口口 |--⑦-|
52
口口口口 |--①-|
口①①① |-②--|
②②②口
口口口口

口口口④
口口④口
口口口口 |③---|
口③③③ |--④-|
53
②口口口 |①---|
口②口口 |②---|
③④⑤⑥ |③④⑤⑥|
①⑦口口 |--⑦-|
54
口口口口 |--①-|
①①①口 |-②--|
口②②②
口口口口

口口④④
④④口④
④口口口 |③---|
③③③口 |④---|
55
⑦⑦⑥⑥ |①-②-|
口⑤④口 |③-④-|
口口③② |⑤--⑥|
口口口① |--⑦-|
56
⑥⑥⑦⑦ |①-②-|
口④⑤口 |③-④-|
②③口口 |⑤--⑥|
①口口口 |--⑦-|
57
⑤口口口 |①-②-|
口⑦⑦口 |③-④-|
②口口④ |⑤--⑥|
①⑥⑥③ |--⑦-|
58
⑧⑩⑤① |①②③④|
④⑬⑬⑦ |⑤⑥⑦⑧|
口②口⑪ |⑨⑩⑪⑫|
⑫⑥⑨③ |⑬---|
59
口口口② |①---|
①口口② |②---|
①口口口
口口口口

口③口口
口口④口
⑤口口口 |③-④-|
口口口⑥ |⑤-⑥-|
60
口口口口 |--①-|
口③口口 |②-③-|
口②口口
口①口口

口口口④
⑤口口口
口口⑥口 |④-⑤-|
口⑦口口 |⑥-⑦-|
61
口口口口 |--①-|
口口口③ |②-③-|
口口口②
口口口①

④口口⑤
口④⑤口
口⑥⑦口 |④-⑤-|
⑥口口⑦ |⑥-⑦-|
62
口②④⑤ |①-②-|
⑤口⑤⑤ |③-④-|
⑤⑤口口 |⑤---|
口①③口 |----|

不確定度: 0

最終更新:2017年08月03日 01:44