エイリアンエイリアン
ナユタン星人

EXTREME

Level: 9
BPM: 152
Notes: 778

1
口口口口 |----|
口口口口 |----|
口口口口 |----|
口口口口 |----|
2
口口口口 |----|
口口口口 |----|
口口口口 |----|
口口口口 |----|
3
口口口口 |----|
口口口口 |----|
口口口口 |----|
口口口口 |----|
4
口口②⑥ |①-②-|
③⑦口口 |③-④-|
①口⑧④ |⑤-⑥-|
⑤口口口 |⑦-⑧-|
5
⑤②口口 |①-②-|
口⑧③口 |③-④-|
口①⑥口 |⑤-⑥-|
口⑦④口 |⑦-⑧-|
6
⑥②口口 |①-②-|
口口⑦③ |③-④-|
④⑧口① |⑤-⑥-|
口口口⑤ |⑦-⑧-|
7
口口②⑤ |①-②-|
口③⑥口 |③-④-|
口⑦①口 |⑤-⑥-|
⑧④口口 |⑦-⑧-|
8
①①口② |①---|
口口口口 |--②-|
口口口口
口口口口

④口口口
口口口口
口口口口 |③---|
口口③③ |--④-|
9
⑥口口② |①-②-|
口⑦口⑤ |③-④-|
①⑧⑧③ |⑤-⑥-|
口④口口 |⑦-⑧-|
10
②口①① |①---|
口口口④ |--②-|
口口口口 |③---|
③③口口 |--④-|
11
③口口② |①-②-|
口口口口 |③-④-|
①口口口
④④口口

口口口口
⑧⑥⑤⑦
⑦⑤⑥⑧ |⑤-⑥-|
口口口口 |⑦-⑧-|
12
①①③③ |①---|
口口口口 |--②-|
口口口口 |③---|
④口口② |--④-|
13
⑥⑧⑧⑤ |①-②-|
①⑦口③ |③-④-|
口口口口 |⑤-⑥-|
口④口② |⑦-⑧-|
14
④口口口 |①---|
②口①③ |②---|
口①口② |③---|
③口口④ |④---|
15
口④口口 |--①-|
口③⑤口 |②-③-|
①⑥口口 |④-⑤-|
口②⑦口 |⑥-⑦-|
16
口口②⑥ |①-②-|
③⑦口口 |③-④-|
①口⑧④ |⑤-⑥-|
⑤口口口 |⑦-⑧-|
17
⑤②口口 |①-②-|
口⑧③口 |③-④-|
口①⑥口 |⑤-⑥-|
口⑦④口 |⑦-⑧-|
18
⑥②口口 |①-②-|
口口⑦③ |③-④-|
④⑧口① |⑤-⑥-|
口口口⑤ |⑦-⑧-|
19
口口⑤② |①-②-|
③⑥⑥口 |③-④-|
口⑦⑦① |⑤-⑥-|
④⑧⑧口 |⑦-⑧-|
20
①口口口 |①---|
口口口① |--②-|
口口口口
口口口②

④口③③
口口口口
口口口口 |③---|
口口口口 |--④-|
21
⑥④④⑤ |①-②-|
口口口② |③-④-|
⑧①①⑦ |⑤-⑥-|
口③③口 |⑦-⑧-|
22
②口口④ |①---|
口口口口 |--②-|
口口口口 |③---|
③③①① |--④-|
23
口口口口 |①-②-|
口②④④ |③-④-|
口口③①
口口口口

口口⑤口
⑥口口口
口口口⑦ |⑤-⑥-|
口⑧⑧口 |⑦-⑧-|
24
①①③③ |①---|
口口口口 |--②-|
口口口口 |③---|
④口口② |--④-|
25
口口口口 |①-②-|
①口口③ |③-④-|
口口口口
口④④②

⑤口口⑥
口口口口
口口口口 |⑤-⑥-|
⑦口口⑧ |⑦-⑧-|
26
④④口③ |①---|
②口①③ |②---|
口①口② |③---|
口③④④ |④---|
27
口口⑥⑦ |--①-|
①口④⑤ |②-③-|
②口口口 |④-⑤-|
口③口口 |⑥-⑦-|
28
②②口口 |①---|
口口③③ |②---|
④④口口 |③---|
①口口① |④---|
29
②②口口 |①---|
口口③③ |②---|
④④口口 |③---|
口口①① |④---|
30
⑤①②⑥ |①-②-|
⑦③④⑧ |③-④-|
口口口口 |⑤-⑥-|
口口口口 |⑦-⑧-|
31
⑨口口⑨ |①②③④|
口口口口 |⑤⑥⑦⑧|
⑧⑥③① |⑨---|
②④⑤⑦ |----|
32
⑤①①④ |①---|
①①①① |②-③-|
⑥②口⑥ |--④-|
④口③⑤ |⑤-⑥-|
33
口①①口 |①---|
①①①① |②-③-|
口②口口
口口③口

口口⑤口
口口口口
口口口⑤ |④---|
口④口口 |--⑤-|
34
⑤①口④ |①-②-|
③④⑤② |③-④-|
①⑥⑦口 |⑤---|
口③②口 |⑥-⑦-|
35
③口口② |①-②-|
口口④口 |③-④-|
口口口口
口①口口

口⑥⑥口
⑥⑤口⑥
口⑦⑦口 |⑤-⑥-|
⑦⑧口⑦ |⑦-⑧-|
36
口口口④ |①-②-|
口口③口 |③-④-|
口口口②
口口①口

口⑤⑥口
⑤口口⑥
⑦口口⑧ |⑤-⑥-|
口⑦⑧口 |⑦-⑧-|
37
②④④口 |①---|
口①①口 |②-③-|
口口口口 |④---|
③⑤⑤口 |--⑤-|
38
①口口口 |--①-|
⑦口②⑥ |②-③-|
口③口口 |④-⑤-|
⑤口口④ |⑥-⑦-|
39
口口口④ |--①-|
口口口口 |②---|
②③①口 |③-④-|
④①③② |----|
40
⑦①①⑦ |①---|
①①①① |②-③-|
口②⑤④ |--④⑤|
口⑥③口 |⑥-⑦-|
41
口①①口 |①---|
①①①① |②-③-|
口②口口
口口③口

口口⑤口
口口口口
口口口⑤ |④---|
口④口口 |--⑤-|
42
口①口④ |①-②-|
③口口② |③-④-|
①口④口
口③②口

⑤⑧口口
口⑦⑥口
口⑤口口 |⑤-⑥-|
⑦口口⑥ |⑦-⑧-|
43
④口口③ |①-②-|
口口口口 |③-④-|
口口口①
口②口口

口⑥⑥口
⑥⑤⑤⑥
口⑦⑦口 |⑤-⑥-|
⑦⑧口⑦ |⑦-⑧-|
44
口口口④ |①-②-|
口口③口 |③-④-|
口口口②
口口①口

口⑤⑥口
⑤口口⑥
⑦口口⑧ |⑤-⑥-|
口⑦⑧口 |⑦-⑧-|
45
②口口口 |①---|
口②①口 |②---|
口①②口
口口口②

口③③③
③口④口
③口口口 |③---|
③口口口 |--④-|
46
②口口口 |①-②-|
口口口③ |③-④-|
④口口口
口①口口

口口⑥口
⑦口口口
口口口⑤ |⑤-⑥-|
口⑧口口 |⑦-⑧-|
47
④①③② |--①-|
⑤③①口 |②---|
⑤⑤口口 |③-④-|
②⑤口④ |--⑤-|
48
口口口② |①-②-|
口口③① |③-④-|
口口①①
④口①口

⑤口⑥口
口⑦口口
口口⑧口 |⑤-⑥-|
口口口口 |⑦-⑧-|
49
⑤②口口 |①-②-|
口⑧③口 |③-④-|
口①⑥口 |⑤-⑥-|
口⑦④口 |⑦-⑧-|
50
⑥②口口 |①-②-|
口口⑦③ |③-④-|
④⑧口① |⑤-⑥-|
口口口⑤ |⑦-⑧-|
51
⑥口口② |①-②-|
口③⑤口 |③-④-|
⑦口口① |⑤-⑥-|
口④口口 |--⑦-|
52
④口口① |①-②-|
口②⑤口 |③---|
⑥③③⑥ |④-⑤-|
①⑤②④ |⑥---|
53
⑪口⑪④ |①②③④|
口③⑥⑤ |⑤⑥⑦⑧|
⑨②⑦⑨ |⑨-⑩-|
①⑩⑧⑩ |⑪---|
54
④口口① |①-②-|
口②⑤口 |③---|
⑥③③⑥ |④-⑤-|
①⑤②④ |⑥---|
55
⑫④⑫⑤ |①②③④|
⑩③口⑥ |⑤⑥⑦⑧|
⑨②⑦口 |⑨⑩⑪-|
①⑪⑧⑪ |⑫---|
56
④②⑤① |①-②-|
口③③口 |③---|
⑥⑤②⑥ |④-⑤-|
①口口④ |⑥---|
57
⑫④⑫⑧ |①②③④|
⑨⑤③⑦ |⑤⑥⑦⑧|
⑩⑥②口 |⑨⑩⑪-|
口⑪①⑪ |⑫---|
58
⑥①⑦口 |①-②-|
⑧③②⑧ |③-④⑤|
⑦②③① |⑥-⑦-|
口④⑤⑥ |⑧---|
59
③①④④ |①-②-|
⑤②①⑤ |③-④-|
④④②① |⑤---|
口②③③ |----|
60
⑤①口⑤ |--①-|
口②②口 |②---|
⑤口④⑤ |③-④-|
③④①③ |⑤---|
61
⑦①①⑦ |①---|
①①①① |②-③-|
口②⑤④ |--④⑤|
口⑥③口 |⑥-⑦-|
62
口①①口 |①---|
①①①① |②-③-|
口②口口
口口③口

口口⑤口
口口口口
口口口⑤ |④---|
口④口口 |--⑤-|
63
口①口④ |①-②-|
③④口② |③-④-|
①口口口
口③②口

⑤口口口
口口⑤口
⑧⑥⑦⑧ |⑤-⑥-|
⑦口口⑥ |⑦-⑧-|
64
③口口口 |①-②-|
口口④口 |③-④-|
口口口口
口①②口

口⑥⑥口
⑥⑤口⑥
口⑦⑦口 |⑤-⑥-|
⑦⑧口⑦ |⑦-⑧-|
65
口口口④ |①-②-|
口口③口 |③-④-|
口口口②
口口①口

口⑤⑥口
⑤口口⑥
⑦口口⑧ |⑤-⑥-|
口⑦⑧口 |⑦-⑧-|
66
②口口口 |①---|
口①①口 |②-③-|
口口口口
③口口口

口④④口
口⑥口口
口口⑤口 |④-⑤-|
口⑦口口 |⑥-⑦-|
67
②口口口 |①-②-|
⑧口③⑦ |③-④-|
口④口① |⑤-⑥-|
⑥口口⑤ |⑦-⑧-|
68
口口口④ |--①-|
口口口口 |②---|
②③①口 |③-④-|
④①③② |----|
69
⑦①①⑦ |①---|
①①①① |②-③-|
口②⑤④ |--④⑤|
口⑥③口 |⑥-⑦-|
70
口①①口 |①-②-|
①①①① |③-④-|
口②口口
口口③④

⑧⑧口口
口口口口
口口⑥⑧ |⑤-⑥-|
⑦⑤口口 |⑦-⑧-|
71
口口①① |①-②-|
②②③③ |③-④-|
①④口口
口③②口

⑥⑥⑦⑦
口口口口
⑦口⑤⑥ |⑤-⑥-|
⑧口口口 |⑦-⑧-|
72
⑤⑥⑥⑤ |①-②-|
⑥②④⑥ |③-④-|
⑧⑦⑦口 |⑤-⑥-|
⑦①③⑦ |⑦-⑧-|
73
④口口④ |①-②-|
口②③口 |③-④-|
口口口①
口口口口

口⑤⑤口
⑧口口⑦
⑧口口⑦ |⑤-⑥-|
口⑥⑥口 |⑦-⑧-|
74
③③③② |①---|
口①②③ |②---|
口②①③ |③---|
②④口③ |--④-|
75
③口口口 |①-②-|
口①②③ |③-④-|
口②口口
④口口④

口口口⑤
⑦口口口
⑤⑧⑧⑦ |⑤-⑥-|
口⑥⑥口 |⑦-⑧-|
76
④①③② |--①-|
⑤③①口 |②---|
⑤⑤口口 |③-④-|
②⑤口④ |--⑤-|
77
口口口口 |①---|
口口口① |----|
口口①① |----|
口口①口 |----|

不確定度: 0

最終更新:2017年08月03日 02:01