ハイパーリアリスト
パスピエ

EXTREME

Level: 8
BPM: 160
Notes: 573

1
口口口口 |----|
口口口口 |----|
口口口口 |----|
口口口口 |----|
2
口口口③ |①---|
口口②④ |②-③-|
口⑤口口 |④---|
口①①口 |⑤---|
3
④口口口 |①---|
口口③口 |②---|
②口口口 |③---|
口口①口 |④---|
4
口口口口 |①---|
②口口② |----|
口口口口 |②---|
口①①口 |----|
5
口口口口 |①---|
口口②口 |②---|
口③口口 |③---|
口①①口 |----|
6
③口口③ |①---|
④②②④ |②-③-|
口⑤⑤口 |④---|
口①①口 |⑤---|
7
④口口④ |①---|
口③③口 |②---|
②口口② |③---|
口①①口 |④---|
8
口⑥③口 |①--②|
④口口④ |--③-|
⑤口口② |④--⑤|
口①①口 |--⑥-|
9
④口口② |①--②|
口口③口 |③-④-|
口口口口
口①①口

口⑥⑥口
口口口口
口⑤口口 |⑤-⑥-|
口⑦⑦口 |--⑦-|
10
口③③口 |--①-|
②口口② |②---|
①口口① |③---|
口④④口 |④---|
11
④口④口 |①--②|
③口③口 |--③-|
⑤②⑤② |--④-|
①口口① |--⑤-|
12
口口口⑤ |--①-|
④②⑤② |②---|
口④口口 |③--④|
③①③① |⑤---|
13
①②③口 |①--②|
口口口口 |--③-|
口⑤⑦口 |④-⑤-|
口④⑥口 |⑥-⑦-|
14
①②③口 |①--②|
口口口口 |--③-|
口④⑥口 |④-⑤-|
口⑤⑦口 |⑥-⑦-|
15
①②③口 |①--②|
口口口口 |--③-|
口⑤⑥口 |④-⑤-|
口④⑦口 |⑥-⑦-|
16
①②④① |①--②|
口口口口 |③-④-|
⑤口口⑤ |⑤---|
⑦③⑥口 |⑥-⑦-|
17
①②③口 |①--②|
口口口口 |--③-|
口⑤⑦口 |④-⑤-|
口④⑥口 |⑥-⑦-|
18
①②③口 |①--②|
口口口口 |--③-|
口④⑥口 |④-⑤-|
口⑤⑦口 |⑥-⑦-|
19
①②③口 |①--②|
口口口口 |--③-|
口④⑥口 |④-⑤-|
③⑤⑦口 |⑥-⑦-|
20
①②④① |①--②|
口口口口 |③-④-|
口③口口
口④口口

⑥口口⑥
口口口口
⑤口口⑤ |⑤---|
口口口口 |⑥---|
21
口口口口 |①---|
③①①③ |②---|
②④④② |③---|
口口口口 |④---|
22
①口口① |①---|
口口口口 |②---|
口口口口
②口口②

⑤⑤⑤⑤
③③③③
口④④口 |③---|
口口口口 |④-⑤-|
23
口口口口 |----|
②口口② |①---|
①③③① |②---|
口口口口 |③---|
24
①口口① |①---|
口口口口 |②---|
口口口口
②口口②

⑤⑤⑤⑤
③③③③
口④④口 |③---|
口口口口 |④-⑤-|
25
口口口口 |----|
口①②③ |①---|
口口口口 |②---|
口①②③ |③---|
26
④③②① |①---|
口口⑤口 |②---|
④③②① |③---|
口口⑤口 |④-⑤-|
27
④④④④ |----|
②口口① |①-②-|
口③③口 |----|
②口口① |③-④-|
28
口口口口 |----|
口口口口 |----|
②口口口 |①---|
①②口口 |②---|
29
③口②口 |①---|
①口口② |--②-|
④①口口 |③---|
口④①③ |--④-|
30
③①口② |①-②-|
口口口口 |③---|
口口口①
口口口口

口口口口
口口口口
口口口⑤ |④---|
口口⑤④ |⑤---|
31
口②口③ |①---|
②口口① |--②-|
口口①④ |③---|
③①④口 |--④-|
32
②口①③ |①-②-|
口口口口 |③---|
①口口口
口口口口

口④⑤口
④⑤口口
⑤口口口 |④---|
口口口口 |⑤---|
33
④②口① |①---|
②④①口 |②-③-|
口①③口 |④---|
①⑤⑤③ |⑤---|
34
③①①③ |----|
①口口① |①---|
③口口③ |②---|
口②②口 |③---|
35
口口①口 |----|
口③口① |①---|
③②③口 |②---|
②③口口 |③---|
36
②口口① |--①-|
口口口口 |②---|
④口口口 |③---|
③④口口 |④---|
37
③口②口 |①---|
①口口② |--②-|
④①口口 |③---|
口④①③ |--④-|
38
③①口② |①-②-|
口口口口 |③---|
口口口①
口口口口

口口口口
口口口口
口口口⑤ |④---|
口口⑤④ |⑤---|
39
口②口③ |①---|
②口口① |--②-|
口口①④ |③---|
③①④口 |--④-|
40
②口①③ |①-②-|
口口口口 |③---|
①口口口
口口口口

口④⑤口
④⑤口口
⑤口口口 |④---|
口口口口 |⑤---|
41
④②口① |①---|
②④①口 |②-③-|
口①③口 |④---|
①⑤⑤③ |⑤---|
42
③①①③ |----|
①口口① |①---|
③口口③ |②---|
口②②口 |③---|
43
口口①口 |----|
口③口① |①---|
③②③口 |②---|
②③口口 |③---|
44
④④④① |①②③-|
口口口② |④---|
⑥口口③ |⑤---|
⑤⑥口口 |⑥---|
45
④口③⑥ |①---|
①口②③ |②-③-|
⑤①口口 |④---|
口⑤①④ |⑤-⑥-|
46
口①口口 |①---|
口口②口 |②---|
口②口①
口口口口

口口口口
口口口口
口口口④ |③---|
口口④③ |④---|
47
⑥③口④ |①---|
③②口① |②-③-|
口口①⑤ |④---|
④①⑤口 |⑤-⑥-|
48
口口①口 |①---|
口②口口 |②---|
①口口口
口口口口

口③口④
③口④口
⑤口⑥口 |③-④-|
口⑤口⑥ |⑤-⑥-|
49
②⑤②⑥ |①---|
⑤口⑥口 |②---|
③口④口 |③-④-|
①③①④ |⑤-⑥-|
50
②⑤②⑥ |①---|
⑤口⑥口 |②---|
③口④口 |③-④-|
①③①④ |⑤-⑥-|
51
①口①口 |①---|
③⑤⑥④ |②---|
③⑤⑥④ |③-④-|
②口②口 |⑤-⑥-|
52
②口口② |①---|
④④⑥⑥ |②---|
③③⑤⑤ |③-④-|
①口口① |⑤-⑥-|
53
①①④④ |①-②-|
口口口口 |③-④-|
③口口口
③口②②

口口口口
⑤⑤口⑥
口⑦⑧⑥ |⑤-⑥-|
口⑦⑧口 |⑦-⑧-|
54
①①②口 |①-②-|
③③②口 |③-④-|
口口口④
口口口④

口口口⑥
口口⑧⑥
⑤⑦⑧口 |⑤-⑥-|
⑤⑦口口 |⑦-⑧-|
55
①①④④ |①-②-|
口口口口 |③-④-|
③口口口
③口②②

口口口口
⑤⑤口⑥
口⑦⑧⑥ |⑤-⑥-|
口⑦⑧口 |⑦-⑧-|
56
①①②口 |①-②-|
③③②口 |③-④-|
口口口④
口口口④

口口口⑥
口口⑧⑥
⑤⑦⑧口 |⑤-⑥-|
⑤⑦口口 |⑦-⑧-|
57
①①④④ |①-②-|
口口口口 |③-④-|
③口口口
③口②②

口口口口
⑤⑤口⑥
口⑦⑧⑥ |⑤-⑥-|
口⑦⑧口 |⑦-⑧-|
58
①①②口 |①-②-|
③③②口 |③-④-|
口口口④
口口口④

口口口⑥
口口⑧⑥
⑤⑦⑧口 |⑤-⑥-|
⑤⑦口口 |⑦-⑧-|
59
①①④④ |①-②-|
口口口口 |③-④-|
③口口口
③口②②

口口口口
⑤⑤口⑥
口⑦⑧⑥ |⑤-⑥-|
口⑦⑧口 |⑦-⑧-|
60
②②③③ |①-②-|
⑥⑥⑦⑦ |③-④-|
①⑤⑧④ |⑤-⑥-|
①⑤⑧④ |⑦-⑧-|

不確定度: 0

最終更新:2017年08月03日 01:42