マホロバケーション
ももいろクローバーZ

EXTREME

Level: 9
BPM: 145
Notes: 775

1
口口口口 |----|
口口口口 |----|
口口口口 |----|
口口口口 |----|
2
口口口口 |----|
口口口口 |----|
口口口口 |----|
口口口口 |----|
3
口③口口 |①-②-|
口④口口 |--③-|
口口②口 |--④-|
口⑤⑤① |--⑤-|
4
口口口① |--①-|
②口口口 |②-③-|
口口口③ |④-⑤-|
④⑥口⑤ |⑥---|
5
①口③⑤ |①-②-|
口②⑥④ |③-④-|
口⑦口口 |⑤-⑥-|
⑧口口口 |⑦-⑧-|
6
口口口口 |①---|
口口口口 |----|
口口口口
口①①口

⑦⑦口口
口②③口
口④⑤口 |②③④⑤|
口⑥口口 |⑥-⑦-|
7
口口①② |①--②|
③口②① |--③-|
口口口口
口③口口

口口口口
口④⑤口
口口口口 |--④-|
口口④⑤ |--⑤-|
8
④①口① |----|
口④③口 |①---|
口口②口 |②③-④|
口口⑤口 |--⑤-|
9
口口①② |①--②|
③口②① |--③-|
口口口口
口③口口

口口口口
口④⑤口
口口口口 |--④-|
口口④⑤ |--⑤-|
10
③口口口 |----|
口②口口 |①②③-|
口口①口
口口口口

口口口⑥
口口口⑥
口⑦⑦⑤ |④-⑤-|
口④口⑤ |⑥-⑦-|
11
②①口口 |①--②|
①②口③ |--③-|
口口口口
口口③口

口口口口
口⑤④口
口口口口 |--④-|
⑤④口口 |--⑤-|
12
②口口口 |--①-|
②口口口 |②-③-|
口③③口
口口①①

口口⑦⑦
口口④口
⑤口口④ |④-⑤-|
口⑤⑥⑥ |⑥-⑦-|
13
②①口口 |①--②|
①②④③ |--③-|
口⑤⑤口 |--④-|
口④③口 |--⑤-|
14
③口口③ |----|
口⑤④口 |①-②-|
②口口① |③---|
⑤②①④ |④-⑤-|
15
②③口口 |①--②|
口口口口 |③-④-|
口④口口
口口①口

⑩口口⑨
口口⑧⑦
口口⑥⑤ |⑤⑥⑦⑧|
口口口口 |⑨-⑩-|
16
⑤⑥⑧⑦ |①-②-|
⑥⑤⑦⑧ |③-④-|
①②④③ |⑤-⑥-|
②①③④ |⑦-⑧-|
17
⑤⑤口⑦ |①②③④|
⑩⑧⑨口 |⑤-⑥-|
⑥③④口 |⑦--⑧|
⑩①②口 |⑨-⑩-|
18
口③口口 |①-②-|
口⑥⑤② |③-④-|
④⑦口⑨ |⑤-⑥-|
口口①⑧ |⑦-⑧⑨|
19
③口①① |①-②-|
④口②② |③-④-|
口口口口
口口口口

口口口⑨
口口口⑩
⑤⑦⑥口 |⑤-⑥⑦|
口口⑧口 |⑧-⑨⑩|
20
①①口口 |①-②③|
口②③口 |④⑤⑥⑦|
④⑤⑥⑦
口口口口

⑨⑨⑧⑧
⑪口口口
⑩口口口 |--⑧-|
⑧⑧⑨⑨ |⑨-⑩⑪|
21
⑥⑤④③ |①-②-|
口口①① |③④⑤⑥|
口口②②
口口口口

口口口口
⑩口⑨口
⑪⑧口口 |⑦⑧⑨-|
⑩⑪⑦口 |⑩-⑪-|
22
⑦⑥⑤④ |①-②③|
口①口口 |④⑤⑥⑦|
口口①③
口口口②

口口口口
口⑩⑧⑩
口口口口 |⑧-⑨-|
⑨口⑨口 |⑩---|
23
⑫④⑩⑫ |①②③④|
③⑥⑥⑨ |⑤-⑥-|
②⑤⑤⑧ |⑦⑧⑨⑩|
⑪①⑦⑪ |⑪-⑫-|
24
⑥口口⑤ |①-②-|
③口口④ |③-④-|
口口口口 |⑤---|
⑤①②⑥ |⑥---|
25
⑧④⑫⑤ |①②③④|
③⑦⑥⑪ |⑤⑥⑦⑧|
②⑭⑮⑩ |⑨⑩⑪⑫|
⑬①⑨⑯ |⑬⑭⑮⑯|
26
口口口口 |①---|
口①①口 |----|
口口口口 |----|
口口口口 |----|
27
口口口口 |①---|
②③③① |②-③-|
②③③①
②②①①

⑤⑤④④
⑤口口④
⑤口口④ |--④-|
口口口口 |--⑤-|
28
口口口口 |----|
口口口口 |----|
口口口口 |----|
口口口口 |----|
29
③口口口 |①---|
口③②口 |--②③|
口口①口 |----|
口④④① |--④-|
30
④⑤口① |①-②③|
⑤④①口 |-④-⑤|
口③②口
③口口口

口口口⑨
口口⑧口
口口口⑦ |⑥-⑦-|
口口⑥口 |⑧-⑨-|
31
③口口④ |①---|
口③②⑤ |--②③|
口口①⑥ |--④-|
口口口① |⑤-⑥-|
32
⑤⑥口口 |①-②③|
⑥⑤①口 |④⑤-⑥|
口②③口
①④口口

口口口⑩
口口⑨口
口口口⑧ |⑦-⑧-|
口口⑦口 |⑨-⑩-|
33
③口口口 |①---|
口③②口 |--②③|
口口①口 |----|
口④④① |--④-|
34
口口⑥① |①-②③|
②③①⑥ |④⑤-⑥|
⑨④⑤⑨ |---⑦|
口⑦⑧口 |⑧-⑨-|
35
⑥⑥⑧⑧ |①②-③|
②②④④ |④-⑤⑥|
口⑨⑨口 |-⑦⑧-|
③⑦⑤① |⑨---|
36
⑧⑧⑥⑥ |①②-③|
④④②② |④-⑤⑥|
口⑨⑨口 |-⑦⑧-|
③⑦⑤① |⑨---|
37
④⑧⑥② |①②-③|
④⑧⑥② |④-⑤⑥|
⑩⑨⑨⑩ |-⑦⑧-|
③⑦⑤① |⑨-⑩-|
38
①③③① |①--②|
①③③① |③---|
④④④④ |④---|
④②②④ |----|
39
口口口② |----|
口④③口 |----|
⑤口口口 |--①-|
口口①① |②③④⑤|
40
⑤②①③ |①---|
口⑥⑦口 |②--③|
口④④⑧ |--④-|
③①②口 |⑤⑥⑦⑧|
41
③①②⑤ |①---|
口⑦⑥口 |②--③|
⑧④④口 |--④-|
口②①③ |⑤⑥⑦⑧|
42
口②①③ |①---|
口口⑤口 |②--③|
口⑥口口 |--④-|
③①②④ |⑤-⑥-|
43
①④④② |①---|
口口口⑤ |②--③|
③⑦⑥③ |--④-|
⑧②①口 |⑤⑥⑦⑧|
44
①④④② |①---|
⑤口口口 |②--③|
③⑥⑦③ |--④-|
口②①⑧ |⑤⑥⑦⑧|
45
②口口① |①---|
口口口口 |②---|
口口口口
口①②口

口口口⑥
口口⑤口
口④口口 |③-④-|
③口口口 |⑤-⑥-|
46
口①①口 |①---|
口口口口 |②---|
口口④口 |③---|
④②③口 |--④-|
47
口口②口 |①---|
②①口口 |②---|
口口口①
口口口口

⑤③口口
口⑥口③
④口⑦④ |③-④-|
口口口⑧ |⑤⑥⑦⑧|
48
⑤②①③ |①---|
④⑥③④ |②--③|
④③⑦④ |--④-|
③①②⑧ |⑤⑥⑦⑧|
49
⑤②①③ |①---|
④⑥口④ |②--③|
④口⑦④ |--④-|
③①②⑧ |⑤⑥⑦⑧|
50
口②①③ |①---|
口口口口 |②--③|
口口口口
③①②口

口口④口
口口口⑤
④口口⑥ |--④-|
口⑤⑥口 |⑤-⑥-|
51
①口口③ |①---|
口①③口 |②--③|
口③②口
③口口②

⑤④④口
口⑥口口
口口⑦口 |--④-|
口口口⑧ |⑤⑥⑦⑧|
52
口口②③ |①---|
口口③① |②--③|
②③口口
③①口口

⑤口口口
口⑥口④
口口⑦口 |--④-|
口④口⑧ |⑤⑥⑦⑧|
53
④口①⑥ |①---|
口口②② |②---|
①②口口 |③-④-|
③②口⑤ |⑤-⑥-|
54
口口口口 |①---|
④①①口 |②---|
④①①口 |③---|
②④口③ |--④-|
55
②口①口 |①---|
口②口① |②---|
口口②①
口口口②

口口⑥⑤
口口③④
④③口口 |③-④-|
⑤⑥口口 |⑤-⑥-|
56
②②⑤⑤ |①--②|
口③③口 |--③-|
④⑥⑥① |④--⑤|
④口口① |--⑥-|
57
口口口口 |①--②|
②③③① |--③-|
②口口①
口口口口

⑥⑥⑤⑤
口口口口
⑥⑥⑤⑤ |④-⑤-|
口口④④ |--⑥-|
58
口口③口 |①--②|
①②②口 |--③-|
口口口③
口①口口

⑥口口⑥
⑤口口口
口④④口 |④--⑤|
口⑤口口 |--⑥-|
59
⑦③④口 |①-②-|
⑥①①口 |③---|
⑤口口口 |④-⑤-|
②④③② |⑥-⑦-|
60
口②口口 |①--②|
口②口口 |--③-|
口③③口
口口①①

口口⑤口
口口⑤口
口口口口 |④--⑤|
④④⑥⑥ |--⑥-|
61
口口口口 |①--②|
口③③口 |--③-|
口①①口
②②口口

⑥⑥⑤⑤
口口口口
⑥⑥⑤⑤ |④-⑤-|
口口④④ |--⑥-|
62
口口口口 |①--②|
②①②① |--③-|
口口口口
口③③口

口④⑤⑥
⑥口口口
口④⑤⑥ |④--⑤|
⑥口口口 |--⑥-|
63
①④②④ |--①-|
口②①② |--②-|
②①②口 |--③-|
③②③① |④---|
64
口口口口 |①---|
②口②口 |②---|
口口口口 |③---|
口①③④ |④---|
65
口口③② |①②③-|
④⑤⑥口 |④⑤⑥-|
口口口口
口①口口

⑪口口⑪
口口口口
口⑨⑧⑦ |⑦⑧⑨-|
⑩口口口 |⑩-⑪-|
66
口口口口 |①---|
口①①口 |②---|
口口口口 |③---|
口②③④ |④---|
67
⑤②①⑤ |--①-|
②口口① |②---|
③④③④ |③--④|
④③④③ |--⑤-|
68
口口口口 |①---|
口①①口 |②---|
②口②口 |③---|
口③④口 |④---|
69
口口③② |①②③-|
④⑤⑥口 |④⑤⑥-|
口口口口
①口口口

⑪口口⑪
口口口口
口⑨⑧⑦ |⑦⑧⑨-|
口⑩⑩口 |⑩-⑪-|
70
口③③口 |①---|
②②③③ |--②-|
口②②③ |③---|
①口②① |----|
71
口口②② |①---|
①①口② |----|
①口②口 |-②--|
①①②② |----|

不確定度: 0

最終更新:2017年08月03日 02:02