蒼空に舞え、墨染の桜
Silver Forest feat. さゆり

EXTREME

Level: 9
BPM: 150
Notes: 743

1
口口口口 |----|
口口口口 |----|
口口口口 |----|
口口口口 |----|
2
①②③④ |①---|
口口口口 |②---|
①口口口 |③---|
口口口口 |④---|
3
口⑤⑥口 |①---|
⑦口口⑧ |②-③④|
⑨③④⑩ |⑤⑥⑦⑧|
①⑪⑫② |⑨⑩⑪⑫|
4
③②③口 |①---|
②①②口 |--②-|
③②③口 |----|
口口口口 |③---|
5
③②③口 |①---|
②①②口 |--②-|
③②③口 |----|
口口口口 |③---|
6
⑫⑯⑮⑪ |①②③④|
④⑧⑦③ |⑤⑥⑦⑧|
⑩⑭⑬⑨ |⑨⑩⑪⑫|
②⑥⑤① |⑬⑭⑮⑯|
7
口口口口 |①②③④|
④⑧⑦③ |⑤⑥⑦⑧|
口口口口
②⑥⑤①

⑩⑭⑬⑨
口口口口
⑫口口⑪ |⑨⑩⑪⑫|
⑯口口⑮ |⑬⑭⑮⑯|
8
口口口口 |①---|
口③②③ |--②-|
口②①② |----|
口③②③ |③---|
9
口口口口 |①---|
口③②③ |--②-|
口②①② |----|
口③②③ |③---|
10
③⑦⑧④ |①②③④|
⑪⑮⑯⑫ |⑤⑥⑦⑧|
①⑤⑥② |⑨⑩⑪⑫|
⑨⑬⑭⑩ |⑬⑭⑮⑯|
11
③⑦⑧④ |①②③④|
⑨⑬⑭⑩ |⑤⑥⑦⑧|
①⑤⑥② |⑨⑩⑪⑫|
⑪⑮⑯⑫ |⑬⑭⑮⑯|
12
①④②④ |①-②-|
⑤口⑦口 |③-④-|
①③①④ |⑤-⑥-|
⑦口⑦⑥ |--⑦-|
13
⑤③口① |--①-|
②⑥口④ |②-③-|
口③口③ |④-⑤-|
口⑥口⑥ |--⑥-|
14
④口④⑤ |①-②-|
口⑦①⑦ |③-④-|
④②口③ |⑤-⑥-|
①⑥①⑦ |--⑦-|
15
③②口④ |--①-|
口口口⑦ |②-③-|
③⑥③① |④-⑤-|
⑤口口口 |⑥-⑦-|
16
⑦③④⑧ |①②③④|
口口口口 |⑤⑥⑦⑧|
⑤口口⑥
口①②口
17
④③④口 |①---|
③①③口 |②-③-|
④③④口 |----|
口口口② |④---|
18
④③④口 |①---|
③①③口 |②-③-|
④③④口 |----|
口口口② |④---|
19
③口口④ |①---|
口①②口 |②---|
口③④口 |③---|
①口口② |④---|
20
口①①口 |①---|
②口口③ |②-③-|
④口口⑤ |④-⑤-|
⑥口口⑦ |⑥-⑦-|
21
②口口口 |①---|
口④③④ |②-③-|
口③①③ |----|
口④③④ |④---|
22
②口口口 |①---|
口④③④ |②-③-|
口③①③ |----|
口④③④ |④---|
23
②口口① |①---|
④口口③ |②---|
口②①口 |③---|
口④③口 |④---|
24
①口口① |①---|
口②口口 |②-③-|
口口③口
口口口口

⑥口口口
口口⑤口
口④口口 |④-⑤-|
口口⑦口 |⑥-⑦-|
25
④③④口 |①---|
③①③口 |②-③-|
④③④口 |----|
口口口② |④---|
26
④③④口 |①---|
③①③口 |②-③-|
④③④口 |----|
口口口② |④---|
27
③口口④ |①---|
口①②口 |②---|
口③④口 |③---|
①口口② |④---|
28
口①①口 |①---|
②口口③ |②-③-|
④口口⑤ |④-⑤-|
⑥口口⑦ |⑥-⑦-|
29
②口口口 |①---|
口④③④ |②-③-|
口③①③ |----|
口④③④ |④---|
30
②口口口 |①---|
口④③④ |②-③-|
口③①③ |----|
口④③④ |④---|
31
②口口① |①---|
④③③④ |②---|
口②①口 |③---|
③④④③ |④---|
32
①①①① |①---|
口口口口 |----|
口①①口 |----|
口口口口 |----|
33
①①④④ |①---|
①口口④ |②-③-|
口③⑥口 |④---|
口⑤②口 |⑤-⑥-|
34
①①④④ |①---|
①口口④ |②---|
③口口② |③---|
③③②② |④---|
35
①①④④ |①---|
①口口④ |②-③-|
口③⑥口 |④---|
口⑤②口 |⑤-⑥-|
36
口口口口 |①---|
口①①口 |----|
口口口口
口口口口

②口口②
口⑤口口
④口口口 |②-③-|
口③口口 |④-⑤-|
37
口口①口 |①---|
口口④口 |----|
口口口③ |--②-|
口口②口 |③-④-|
38
口①口口 |①---|
口口口口 |----|
口②③口 |--②-|
口④口口 |③-④-|
39
③①口① |①---|
口③④口 |②---|
⑤口⑥④ |③-④-|
②⑤②⑥ |⑤-⑥-|
40
口口口口 |----|
口口③口 |----|
口口口② |--①-|
口口①口 |②-③-|
41
口①口口 |①---|
口④口口 |----|
③口口口 |--②-|
口②口口 |③-④-|
42
口口①口 |①---|
口口口口 |----|
口③②口 |--②-|
口口④口 |③-④-|
43
口④口① |①---|
④②①口 |②---|
②口③口 |③---|
口③口口 |④---|
44
口口口① |①---|
口口①③ |----|
口③口② |----|
口②口口 |②-③-|
45
口口口① |①---|
③①口口 |----|
②口③口 |----|
口口②口 |②-③-|
46
①②口口 |①---|
口③①② |----|
口口口③ |----|
口口口口 |②-③-|
47
口口口口 |①---|
③口②口 |②-③-|
②①③口 |----|
口④⑤① |④-⑤-|
48
①口口① |①---|
②口口② |②---|
③口口③ |③---|
④口口④ |④---|
49
口口②口 |①---|
口①①② |----|
口①①口 |②---|
口口口口 |----|
50
口口口口 |①---|
口口②口 |----|
①②口口 |----|
口①口口 |②---|
51
③④口② |①---|
②①③④ |②---|
④③①② |③---|
②口④③ |④---|
52
口口①口 |①---|
①口口口 |----|
口口口① |----|
口①口口 |----|
53
⑨①⑤⑬ |①②③④|
⑩②⑥⑭ |⑤⑥⑦⑧|
⑪③⑦⑮ |⑨⑩⑪⑫|
④⑫⑯⑧ |⑬⑭⑮⑯|
54
⑤③⑤口 |①---|
③①③口 |②-③-|
⑤③⑤口 |--④-|
口④口② |⑤---|
55
⑤③⑤④ |①---|
③①③口 |②-③-|
⑤③⑤口 |--④-|
口口口② |⑤---|
56
③口口④ |①---|
口①②口 |②---|
口③④口 |③---|
①口口② |④---|
57
口①①口 |①---|
②口口③ |②-③-|
④口口⑤ |④-⑤-|
⑥口口⑦ |⑥-⑦-|
58
②口④口 |①---|
口⑤③⑤ |②-③-|
口③①③ |--④-|
口⑤③⑤ |⑤---|
59
②口④口 |①---|
口⑤③⑤ |②-③-|
口③①③ |--④-|
口⑤③⑤ |⑤---|
60
②口口① |①---|
④口口③ |②---|
口②①口 |③---|
口④③口 |④---|
61
①口口① |①---|
④口口⑤ |②-③-|
口口口口 |④-⑤-|
②⑥⑦③ |⑥-⑦-|
62
⑤③⑤口 |①---|
③①③口 |②-③-|
⑤③⑤口 |--④-|
口④口② |⑤---|
63
⑤③⑤④ |①---|
③①③口 |②-③-|
⑤③⑤口 |--④-|
口口口② |⑤---|
64
③口口④ |①---|
口①②口 |②---|
口③④口 |③---|
①口口② |④---|
65
口①①口 |①---|
②口口③ |②-③-|
④口口⑤ |④-⑤-|
⑥口口⑦ |⑥-⑦-|
66
②口④口 |①---|
口⑤③⑤ |②-③-|
口③①③ |--④-|
口⑤③⑤ |⑤---|
67
②口④口 |①---|
口⑤③⑤ |②-③-|
口③①③ |--④-|
口⑤③⑤ |⑤---|
68
②口口① |①---|
④③③④ |②---|
口②①口 |③---|
③④④③ |④---|
69
①①①① |①---|
口②②口 |②---|
口①①口
口口口口

④口口④
口口口口
③口口③ |③---|
口口口口 |④---|
70
⑦④⑦⑤ |①-②-|
④①④⑧ |③-④-|
⑦④⑦口 |⑤-⑥-|
②⑥①③ |⑦-⑧-|
71
⑦④⑦⑥ |①-②-|
④①④⑧ |③-④-|
⑦④⑦口 |⑤-⑥-|
②⑤①③ |⑦-⑧-|
72
口口口口 |①-②-|
④①③口 |③-④-|
口口口②
①③①③

⑤⑦⑤⑦
口⑧口⑥
口⑤⑦口 |⑤-⑥-|
口口口口 |⑦-⑧-|
73
口口口口 |①-②-|
③口②④ |③-④-|
⑤口口⑥ |⑤-⑥-|
⑦①①⑧ |⑦-⑧-|
74
③①⑥② |①-②-|
口⑦④⑦ |③-④-|
⑧④①④ |⑤-⑥-|
⑤⑦④⑦ |⑦-⑧-|
75
③①⑥② |①-②-|
口⑦④⑦ |③-④-|
⑧④①④ |⑤-⑥-|
⑤⑦④⑦ |⑦-⑧-|
76
③④⑧① |①-②-|
⑦⑤⑤⑦ |③-④-|
⑥③①② |⑤-⑥-|
⑤⑦⑦⑤ |⑦-⑧-|
77
①口口① |①---|
口②②口 |②---|
③①①③ |③---|
④口口④ |④---|

不確定度: 0

最終更新:2017年08月03日 02:03