今夜はパジャマパーティ
日向美ビタースイーツ♪

EXTREME

Level: 8
BPM: 148
Notes: 548

1
口口口口 |----|
口口口口 |----|
口口口口 |----|
口口口口 |----|
2
①①②② |①-②-|
口口口口 |----|
口口口口
②②①①

口口③口
口口口③
口口口口 |----|
口口口口 |--③-|
3
口口口口 |--①-|
口口口口 |②---|
口①口口 |----|
口②口口 |----|
4
①③口② |①-②-|
③口口口 |----|
口口口口 |----|
②口口① |--③-|
5
口口口口 |--①-|
口口口口 |②---|
口口①口 |----|
口口②口 |----|
6
口①①口 |①---|
口口口口 |②-③-|
口②口口
口口③口

④口⑤口

口口口口 |--④-|
口口口口 |--⑤-|
7
口口口④ |--①-|
口口口口 |②---|
口口①口 |③---|
口②③口 |④---|
8
口⑤②口 |①-②-|
⑧⑧口 |③-④-|
⑤④③② |⑤-⑥-|
口⑥⑦口 |⑦-⑧-|
9
①口口② |--①-|
口口口口 |②---|
口口口口
②口口①

⑤③④口
口口口口
口口口口 |③-④-|
口④③⑤ |--⑤-|
10
口口口③ |--①-|
②口①口 |②-③-|
口①口②
③口口口

口口口口
口④⑦口
口口④口 |④-⑤-|
口⑤⑥口 |⑥-⑦-|
11
①⑥④⑦ |①-②-|
⑥口口② |③-④-|
③口口口 |⑤-⑥-|
⑤口口口 |--⑦-|
12
口口⑤⑤ |--①-|
口口口② |②-③-|
⑥⑦口③ |④-⑤-|
口口④① |--⑥⑦|
13
④口口口 |①-②-|
口②口口 |③-④-|
口口①口
口③口口

口口口口
口口⑧口
口⑦⑥⑤ |--⑤⑥|
口口口口 |⑦-⑧-|
14
口④③② |①---|
④口口③ |②-③-|
口口口口 |----|
口口①口 |--④-|
15
⑦口口④ |--①-|
口⑦③口 |②-③-|
口口⑤① |④-⑤-|
口口⑥② |⑥-⑦-|
16
口⑦③口 |--①-|
口⑥⑦① |②-③-|
口⑤⑥⑦ |④-⑤-|
⑤口④② |⑥-⑦-|
17
口口口③ |----|
①口口口 |----|
口口口口 |--①-|
口②口口 |②-③-|
18
①口口口 |①---|
口口②口 |②---|
口②口口
口口口①

⑤口口口
④口口⑤
③口口口 |③-④-|
口口⑥口 |⑤-⑥-|
19
④③①① |①---|
③口口口 |②-③-|
口口②口 |--④-|
⑥⑤口口 |⑤-⑥-|
20
口口④⑤ |①-②-|
口②口④ |③-④-|
口③口口 |----|
口口①⑥ |⑤-⑥-|
21
③口口口 |①-②-|
口②口口 |③-④-|
①口口口
口口④口

口口⑤⑤
口口口口
⑥口口口 |⑤---|
⑦口口口 |⑥-⑦-|
22
⑤③④⑤ |①-②-|
③口口④ |③-④-|
口口口② |----|
口口口① |--⑤-|
23
口口⑧口 |--①-|
②口⑥⑧ |②-③④|
口⑤④③ |⑤-⑥-|
口①⑦口 |⑦-⑧-|
24
口②口口 |--①-|
①口口口 |②-③-|
口③④口 |----|
口口口口 |--④-|
25
⑤④口③ |①-②-|
④口④口 |③-④-|
①④口⑥ |--⑤-|
口②⑦口 |⑥-⑦-|
26
口口口口 |①---|

口口口口
口口口口

②口口③
口口口 |--②-|
②口口口 |----|
③口口口 |--③-|
27
口③口口 |①---|
①口口② |②-③-|
②口口①
口口③口

口口口口
④口口口
口口口口 |----|
口口口④ |--④-|
28
②④④② |①---|
口口口① |②-③-|
③口口③ |--④-|
①⑤⑤口 |--⑤-|
29
①口口① |①---|
口口口口 |----|
口口口口
口口口口

口口口④
②口口口
口口口口 |--②-|
口③口口 |③-④-|
30
口 |①②③-|
口口口口 |----|
①②③口 |④---|
口口口口 |----|
31
口口口 |①---|
|②-③-|
口口口口
口②③口

口⑥口口
口⑤口口
④口口口 |--④-|
口口口口 |⑤-⑥-|
32
口④④ |①-②-|
口口 |③-④-|
②口口
口口③口

口口口
⑥口口⑥
口口口口 |⑤---|
口口口口 |--⑥-|
33
④③②④ |①---|
口口 |②-③-|
②③ |--④-|
①① |⑤---|
34
口口口口 |①---|
口口②口 |--②-|
口①口口
口口口口

口口口口
口口
口口 |----|
口口 |③---|
35
口口口口 |①---|
口口口口 |----|
口口②② |----|
口口 |--②-|
36
口口①① |①---|
口② |--②-|
②口口口
口口口口

口口口
口口
口口 |----|
口口口 |③---|
37
口口口 |----|
口②③口 |--①-|
口口①口 |--②-|
口口口 |--③-|
38
口口口口 |--①-|
②口口口 |②-③-|
口口口口
①③③口

口口口⑥
口④⑤口
口口口④ |④-⑤-|
⑦口口⑦ |⑥-⑦-|
39
口①①口 |--①-|
①口口① |--②-|
口口口②
口口口口

口口

口口 |③-④-|
口⑤③口 |⑤-⑥-|
40
①口 |--①-|
口②① |--②-|
口口口口
口口口口

③⑥口⑤
口④口口
③口口⑤ |③-④-|
口口口口 |⑤-⑥-|
41
口口口口 |①-②-|
④口口① |③-④-|
口③②口
口④①口

口口⑤⑤
口⑥口
口口口 |⑤---|
口 |⑥-⑦-|
42
①①③口 |①---|
口口口口 |②-③-|
口口口
口口

口⑦口口
⑦口④口
口⑤口口 |④-⑤-|
口⑥口口 |⑥-⑦-|
43
口口 |①--②|
②① |--③-|
口口口口
口口①②

口口⑤
口口
口口口口 |--④-|
口口口口 |--⑤-|
44
口口 |①-②-|
①口 |③-④-|
口口口②
口口③口

口口
口口口
口口口口 |--⑤-|
口口口口 |----|
45
②⑦口① |①---|
⑦口口口 |②-③④|
③④⑤口 |⑤---|
①⑥口② |⑥-⑦-|
46
②口口① |①---|
口口口口 |②-③-|
口口口口
①口③②

口口口⑥
口口⑤口
口⑦⑦④ |④-⑤-|
口口口口 |⑥-⑦-|
47
口①①口 |--①-|
①口口① |--②-|
口口口②
口口口口

口口

口口 |③-④-|
口⑤③口 |⑤-⑥-|
48
①口 |--①-|
口②① |--②-|
口口口口
口口口口

③⑥口⑤
口④口口
③口口⑤ |③-④-|
口口口口 |⑤-⑥-|
49
口口口口 |①-②-|
④口口① |③-④-|
口③②口
口④①口

口口⑤⑤
口⑦⑥
口口口 |⑤-⑥-|
口 |⑦-⑧-|
50
①①③口 |①---|
口口口口 |②-③-|
口口口
口口

口⑦口口
⑦口④口
口⑤口口 |④-⑤-|
口⑥口口 |⑥-⑦-|
51
|①--②|
口①口口 |--③-|
口口①口


口口口
口口口口
口口口⑤ |--④-|
口⑤口 |--⑤-|
52
口 |①--②|
口①口② |--③-|
②口①口


口⑤口
口口口⑤
口口口口 |--④-|
口口口 |--⑤-|
53
口口口口 |①---|
口②②口 |②---|
①口口口
口①口口

④口⑤口
口口口口
口③③口 |③---|
口⑤口④ |④-⑤-|
54
口①口 |--①-|
口口 |②---|
口口
口①口

口口口
口口口口
口口③口 |----|
口口口 |③---|
55
口 |①---|
口口口口 |----|
口口口口 |----|
口口口口 |----|
56
口口口 |①---|
口口口口 |----|

口口口口

③③口口
口口口口
口口口口 |----|
②②口口 |②-③-|
57
口口口口 |①---|
口口口口 |----|

口口口口

⑤⑤口口

④口 |②-③-|
口口口口 |④-⑤-|
58
口口口口 |①---|
口口口 |----|
口口口口


口口口②
口口口口
口口③口 |----|
口口 |②-③-|
59
口 |①-②-|
口④③口 |③-④-|
口②口口 |--⑤-|
口口⑤口 |----|
60
④口口 |①-②-|
|③-④-|
口口②口
口口口口

⑥口口口
口口口口
口口口口 |--⑤-|
口口⑤口 |⑥---|
61
口口口口 |①---|
口口口 |----|

口口口口

口口

口 |②---|
口口 |----|
62
口口口 |①---|
|----|

口口

口口口口
口②口
口②口 |----|
口口口口 |②---|
63
①①②② |①-②-|
口口口口 |----|
口口口口
②②①①

口口③口
口口口③
口口口口 |----|
口口口口 |--③-|
64
口口口口 |--①-|
口口口口 |②---|
口①口口 |----|
口②口口 |----|
65
①③口② |①-②-|
③口口口 |----|
口口口口 |----|
②口口① |--③-|
66
口口口口 |--①-|
口口口口 |②---|
口口①口 |----|
口口②口 |----|
67
口①①口 |①---|
口口口口 |②-③-|
口②口口
口口③口

④口⑤口

口口口口 |--④-|
口口口口 |--⑤-|
68
口口口④ |--①-|
口口口口 |②---|
口口①口 |③---|
口②③口 |④---|
69
口⑤②口 |①-②-|
⑧⑧口 |③-④-|
⑤④③② |⑤-⑥-|
①⑥⑦口 |⑦-⑧-|
70
①口口② |--①-|
口口口口 |②---|
口口口口
②口口①

⑤③④口
口口口口
口口口口 |③-④-|
口④③⑤ |--⑤-|
71
口口口③ |--①-|
②④①口 |②-③-|
口①④② |④---|
③口口口 |----|
72
②口①口 |①---|
②口口① |--②-|
①口口②
口①口②

口③③口
口③口③
③③口口 |----|
③③口口 |③---|

不確定度: 0

最終更新:2017年03月29日 17:18