コイノチカラ
石阪久美子

ADVANCED

Level: 6
BPM: 162
Notes: 425

1
口口口口 |----|
口口口口 |----|
口口口口 |----|
口口口口 |----|
2
口口口口 |----|
口口口口 |----|
口口口口 |----|
口口口口 |----|
3
口口口口 |①---|
口口口口 |--②-|
口③④口 |③---|
①②口口 |--④-|
4
口口口② |①---|
口④③口 |----|
口口口① |--②-|
口口口口 |③-④-|
5
口口口口 |①---|
口口口口 |--②-|
①③②口 |③---|
口⑤④口 |④-⑤-|
6
口口口口 |----|
口口口口 |----|
②口口① |①---|
口口口口 |②---|
7
口口口口 |①---|
口口口口 |--②-|
口③④口 |③---|
①②口口 |--④-|
8
口口口② |①---|
口④③口 |----|
口口口① |--②-|
口口口口 |③-④-|
9
①②③④ |①-②-|
口口⑤口 |--③-|
口⑥口口 |--④-|
口口口口 |⑤-⑥-|
10
口口口口 |①-②-|
口口口② |③---|
口口①③ |----|
口口口口 |----|
11
口口口口 |①---|
口④④口 |②---|
②口口③ |③---|
口①①口 |④---|
12
④③③口 |①---|
②口口② |②---|
口①①口 |③---|
口口口口 |④---|
13
口口口① |①---|
口口口口 |②---|
口③③口 |③---|
口②②口 |----|
14
①口口① |①---|
②口口② |----|
口口口口 |②---|
口口口口 |----|
15
口口口口 |①---|
口口口口 |②---|
口③④口 |③---|
口①②口 |④---|
16
口③口④ |①---|
口②口口 |②---|
①口口口 |③---|
口口口口 |④---|
17
口口口口 |①---|
口口口① |②---|
口口口② |③---|
口口④③ |④---|
18
口口③口 |①---|
口口②口 |②---|
口口①口 |③---|
口口口口 |----|
19
口口口口 |①-②-|
口①②③ |③-④-|
口口口④ |--⑤-|
口⑤⑥⑦ |⑥-⑦-|
20
口口①口 |--①-|
③②口口 |②-③-|
口④口口 |--④-|
口⑤口口 |⑤---|
21
口口口① |①-②-|
口口口② |③-④-|
口口口③ |----|
口口④口 |----|
22
口口口口 |----|
口口口口 |----|
口口口口 |----|
口口口口 |----|
23
口口①口 |①-②-|
口②⑥口 |③④⑤-|
口③④⑤ |⑥-⑦-|
口口⑦口 |----|
24
口⑥口口 |①-②-|
①②③口 |③-④-|
口⑦④口 |⑤-⑥-|
口⑧⑤口 |⑦-⑧-|
25
口口①② |--①-|
口③④⑤ |②-③④|
口口口⑥ |⑤-⑥-|
口⑧⑦口 |⑦-⑧-|
26
口口口口 |----|
①②③④ |--①-|
口口口口 |②-③-|
口口口口 |④---|
27
口口口口 |①---|
口④④口 |②---|
②口口③ |③---|
口①①口 |④---|
28
口③③口 |①---|
②④④② |②---|
口①①口 |③---|
口口口口 |④---|
29
①口口① |①---|
②口口② |----|
①口口① |②---|
②口口② |----|
30
口①②口 |--①-|
口口③口 |②-③-|
口④口口 |--④-|
口⑤口口 |⑤---|
31
口口口口 |①---|
口口口口 |②---|
②口口② |③---|
①③④① |④---|
32
口口口口 |①---|
口④口口 |②---|
③①②口 |③---|
口口口口 |④---|
33
②①口② |①---|
口口口口 |----|
口口口口 |②---|
口口口口 |----|
34
口口口口 |①---|
①口口① |----|
②口口② |②---|
口口口口 |----|
35
口口口口 |①-②-|
⑤口口④ |③---|
口口口口 |④-⑤-|
①②③口 |----|
36
口口口口 |①-②-|
口①②③ |③-④-|
口口口④ |--⑤-|
口⑤⑥⑦ |⑥-⑦-|
37
口口①口 |--①-|
③②口口 |②-③-|
口④口口 |--④-|
口⑤口口 |⑤---|
38
口口口① |①-②-|
口口口② |③-④-|
口口口③ |----|
口口④口 |----|
39
口口口口 |----|
口口口口 |----|
口口口口 |----|
口口口口 |----|
40
口①②③ |①②③-|
口口口④ |④-⑤-|
口⑥⑤口 |⑥-⑦-|
口口⑦口 |----|
41
口④口口 |①-②-|
①②③口 |③-④-|
⑦⑤⑧口 |⑤-⑥-|
口⑥口口 |⑦-⑧-|
42
口口①口 |--①-|
口②④⑤ |②-③-|
口③口⑥ |④-⑤-|
口口⑦口 |⑥-⑦-|
43
口口口口 |----|
口口口口 |--①-|
①②③④ |②-③-|
口口口口 |④---|
44
口口口口 |--①-|
口①②口 |②-③-|
口口③口 |--④-|
口④⑤⑥ |⑤-⑥-|
45
口口①口 |--①-|
口⑤②口 |②-③-|
口③⑥口 |④-⑤-|
④口口口 |--⑥-|
46
口口口① |①-②-|
口口口② |③-④-|
口口口③ |----|
口口④口 |----|
47
口口口口 |----|
口口口口 |----|
口口口口 |----|
口口口口 |----|
48
①口口口 |①-②-|
②口口口 |③-④-|
③⑤口口 |--⑤-|
④口口口 |----|
49
④口⑨⑩ |①②③-|
①②③口 |④-⑤-|
⑤口口口 |⑥⑦⑧-|
⑥⑦⑧口 |⑨-⑩-|
50
①②口口 |--①-|
③④⑤口 |②-③④|
口口⑥口 |⑤-⑥-|
⑧⑦口口 |⑦-⑧-|
51
③②②③ |----|
口①①口 |--①-|
口口口口 |②---|
口口口口 |③---|
52
④口口④ |①---|
口③③口 |②---|
口②②口 |③---|
口①①口 |④---|
53
口口口口 |①---|
③口口③ |②---|
口②②口 |③---|
口①①口 |----|
54
口口口口 |①-②-|
③④⑧⑦ |③-④-|
②①⑤⑥ |⑤-⑥-|
口口口口 |⑦-⑧-|
55
口②②口 |①---|
口口口口 |----|
口口口口 |②---|
口①①口 |----|
56
口口口口 |①---|
③口口③ |②---|
②口口② |③---|
①口口① |----|
57
口①②口 |①-②-|
⑧口口③ |③-④-|
⑦口口④ |⑤-⑥-|
口⑥⑤口 |⑦-⑧-|
58
口①①口 |①---|
口口口口 |----|
口口口口 |②---|
口②②口 |----|
59
口口口口 |①---|
口口口口 |②---|
口①②③ |③---|
口口口口 |----|
60
①口口⑤ |①-②-|
口②⑥口 |③-④-|
口⑦③口 |⑤-⑥-|
⑧口口④ |⑦-⑧-|
61
①口口⑤ |①-②-|
口②⑥口 |③-④-|
口⑦③口 |⑤-⑥-|
⑧口口④ |⑦-⑧-|
62
①口②口 |①---|
口④口③ |②---|
口口口口 |③---|
口口口口 |④---|
63
口口口口 |①---|
口口口口 |②---|
①口②口 |③---|
口④口③ |④---|
64
口口口口 |①---|
①①②② |②---|
口⑤⑤口 |--③-|
③④④③ |④-⑤-|
65
①口口① |①---|
口②②口 |②---|
③口口③ |③---|
口④④口 |④---|
66
①⑥口口 |①-②-|
②⑦口口 |③-④-|
③④⑤口 |⑤-⑥-|
口⑧口口 |⑦-⑧-|
67
口口①② |--①-|
口口④③ |②-③-|
口口口⑤ |④-⑤-|
口口⑦⑥ |⑥-⑦-|
68
①②口口 |--①-|
口③口口 |②-③-|
④口口口 |④-⑤-|
⑤⑥口口 |⑥---|
69
口口①口 |--①-|
口口②口 |②-③-|
口口③口 |④---|
口口④口 |----|
70
口口口口 |①---|
①口口② |②---|
口口口口 |----|
口口口口 |----|
71
口口口口 |①---|
口口口口 |②---|
口③④口 |③---|
口①②口 |④---|
72
④③口口 |①---|
口②口口 |②---|
①口口口 |③---|
口口口口 |--④-|
73
口口口② |①-②-|
④口口⑥ |③---|
口口口⑤ |--④-|
③口口① |⑤-⑥-|
74
口口口口 |①-②-|
口②④口 |③-④-|
①⑤③口 |⑤---|
口口口口 |----|
75
口②④⑦ |①-②-|
①⑥⑥口 |③-④-|
口⑥⑥① |⑤-⑥-|
口⑤③口 |--⑦-|
76
口口口口 |①-②-|
④⑤口① |③---|
口口口② |----|
口口③口 |④-⑤-|
77
口口口口 |①-②-|
口口①口 |③-④-|
口口②口 |⑤---|
③④⑤口 |----|
78
口口①口 |--①-|
口⑥②口 |②-③-|
口口③⑤ |④-⑤-|
口口④口 |--⑥-|
79
口口⑥⑦ |①-②-|
口口③口 |--③-|
口①④口 |④-⑤-|
②口口⑤ |⑥-⑦-|
80
口口口口 |----|
①②②① |①-②-|
①②②① |----|
口口口口 |----|


不确定度: 0

最終更新:2012年11月10日 15:18