炉心融解
iroha

BASIC

Level: 2
BPM: 165
Notes: 154

1
口口口口 |----|
口口口口 |----|
口口口口 |----|
口口口口 |----|
2
口口口口 |----|
口口口口 |----|
口口口口 |----|
口口口口 |----|
3
口口口口 |----|
口口口口 |----|
口口口口 |----|
口口口口 |----|
4
口口口口 |----|
口口口口 |----|
口口口口 |----|
口口口口 |----|
5
口口口口 |----|
口口口口 |----|
口口口口 |----|
口口口口 |----|
6
口口口口 |----|
口口口口 |----|
口口口口
口口口口
7
口口口口 |----|
口口口口 |----|
口口口口 |----|
口口口口 |----|
8
口口口口 |①---|
口①口口 |----|
口口口口 |----|
口口口口 |----|
9
口口口口 |①---|
口口①口 |----|
口口口口 |----|
口口口口 |----|
10
口口口口 |①---|
口口口口 |----|
口口①口 |----|
口口口口 |----|
11
口口口口 |①---|
口口口口 |----|
口①口口 |----|
口口口口 |----|
12
口口口口 |①---|
口①口口 |----|
口口口口 |----|
口口口口 |----|
13
口口口口 |①---|
口口①口 |----|
口口口口 |----|
口口口口 |----|
14
口口口口 |①---|
口口口口 |----|
口口①口 |----|
口口口口 |----|
15
口口口口 |①---|
口口口口 |----|
口①口口 |----|
口口口口 |----|
16
口口口口 |①---|
①②口口 |----|
口口口口 |②---|
口口口口 |----|
17
口口②口 |①---|
口口①口 |----|
口口口口 |②---|
口口口口 |----|
18
口口口口 |①---|
口口②① |----|
口口口口 |②---|
口口口口 |----|
19
口②口口 |①---|
口①口口 |----|
口口口口 |②---|
口口口口 |----|
20
口口口口 |①---|
①②口口 |----|
口口口口 |②---|
口口口口 |----|
21
口口②口 |①---|
口口①口 |----|
口口口口 |②---|
口口口口 |----|
22
口口口口 |①---|
口口②① |----|
口口口口 |②---|
口口口口 |----|
23
口②口口 |①---|
口①口口 |----|
口口口口 |②---|
口口口口 |----|
24
口口口口 |①---|
口①①口 |----|
口②②口 |②---|
口口口口 |----|
25
口口口口 |①---|
①口口口 |----|
口②口口 |②---|
口口口口 |----|
26
口口口口 |①---|
口①①口 |----|
口②②口 |②---|
口口口口 |----|
27
口口口口 |①---|
①口口① |----|
口口口口 |----|
口口口口 |----|
28
口口口口 |①---|
口①①口 |----|
口②②口 |②---|
口口口口 |----|
29
口口口口 |①---|
①口口口 |----|
口②口口 |②---|
口口口口 |----|
30
口口口口 |①---|
口①①口 |----|
口②②口 |②---|
口口口口 |----|
31
口口口口 |①---|
①口口① |----|
口口口口 |----|
口口口口 |----|
32
口口口口 |①---|
口②口口 |----|
口①口口 |②---|
口口口口 |----|
33
口①①口 |①---|
口口口口 |----|
口口口口 |----|
口口口口 |----|
34
口口口口 |①---|
口口②口 |----|
口口①口 |②---|
口口口口 |----|
35
口口①口 |①---|
口②②口 |----|
口口口口 |②---|
口口口口 |----|
36
口口口口 |①---|
口口②口 |----|
口口①口 |②---|
口口口口 |----|
37
口①①口 |①---|
口口口口 |----|
口口口口 |----|
口口口口 |----|
38
口口口口 |①---|
口②口口 |----|
口①口口 |②---|
口口口口 |----|
39
口①口口 |①---|
口②②口 |----|
口口口口 |②---|
口口口口 |----|
40
口口口口 |①---|
口口口口 |----|
①②口口 |②---|
口口口口 |----|
41
口口口口 |①---|
口①①口 |----|
口口口口 |----|
口口口口 |----|
42
口口口口 |①---|
口口口口 |----|
口口②① |②---|
口口口口 |----|
43
口口口口 |①---|
口①①口 |----|
口口口口 |----|
口口口口 |----|
44
口口口口 |①---|
口口口口 |----|
②①口口 |②---|
口口口口 |----|
45
口口口口 |①---|
口①①口 |----|
口口口口 |----|
口口口口 |----|
46
口口口口 |①---|
口口口口 |----|
口口①② |②---|
口口口口 |----|
47
口口口口 |①---|
口①①口 |----|
口口口口 |----|
口口口口 |----|
48
口口口口 |----|
口口口口 |----|
口口口口 |----|
口口口口 |----|
49
口口口口 |----|
口口口口 |----|
口口口口
口口口口
50
口口口口 |①---|
①口口① |----|
②口口② |②---|
口口口口 |----|
51
口口口口 |①---|
口③④口 |②---|
口②①口 |③---|
口口口口 |④---|
52
①口口① |①---|
口口口口 |----|
口口口口 |----|
口口口口 |----|
53
口②②口 |①---|
①口口① |----|
口口口口 |②---|
口口口口 |----|
54
口口口口 |①---|
口①①口 |----|
口口口口 |----|
口口口口 |----|
55
①口口① |①---|
口口口口 |----|
口口口口 |----|
口口口口 |----|
56
口口口① |①---|
口口②口 |----|
口口口口 |②---|
口口口口 |----|
57
②口口② |①---|
口①口口 |----|
口口口口 |②---|
口口口口 |----|
58
口口口口 |①---|
①口口① |----|
②口口② |②---|
口口口口 |----|
59
口口口口 |①---|
口④③口 |②---|
口①②口 |③---|
口口口口 |④---|
60
①口口① |①---|
口口口口 |----|
口口口口 |----|
口口口口 |----|
61
口②②口 |①---|
①口口① |----|
口口口口 |②---|
口口口口 |----|
62
口口口口 |①---|
口①①口 |----|
口口口口 |----|
口口口口 |----|
63
①口口① |①---|
口口口口 |----|
口口口口 |----|
口口口口 |----|
64
①口口口 |①---|
口②口口 |----|
口口口口 |②---|
口口口口 |----|
65
口②②口 |①---|
口口①口 |----|
口口口口 |②---|
口口口口 |----|
66
口口口口 |①---|
①②口口 |----|
口口口口 |②---|
口口口口 |----|
67
口口②口 |①---|
口口①口 |----|
口口口口 |②---|
口口口口 |----|
68
口口口口 |①---|
口口②① |----|
口口口口 |②---|
口口口口 |----|
69
口②口口 |①---|
口①口口 |----|
口口口口 |②---|
口口口口 |----|
70
口口口口 |①---|
口口口口 |----|
②①①② |②---|
口口口口 |----|
71
口口口口 |①---|
①②②① |----|
口口口口 |②---|
口口口口 |----|
72
口①①口 |①---|
口口口口 |----|
口口口口 |----|
口口口口 |----|
73
①①①① |①---|
口口口口 |----|
口口口口 |----|
口口口口 |----|
74
口口口口 |①---|
口①①口 |----|
口①①口 |----|
口口口口 |----|

不確定度: 0

最終更新:2017年01月04日 15:45