炉心融解
iroha

ADVANCED

Level: 6
BPM: 165
Notes: 334

1
口口口口 |----|
口口口口 |----|
口口口口 |----|
口口口口 |----|
2
口口口口 |①---|
口口口口 |----|
口口口口 |----|
口①①口 |----|
3
口口口口 |①---|
口①口口 |----|
口口②口 |②---|
口口口口 |----|
4
口口口口 |①---|
口口口① |----|
口口口口 |----|
口口口口 |----|
5
口口口口 |----|
口口口口 |----|
口口口口 |----|
口口口口 |----|
6
口口口口 |----|
口口口口 |----|
口口口口
口口口口
7
口口口口 |①---|
口口口口 |----|
口口口口 |----|
口①①口 |----|
8
②口口口 |①---|
口口口口 |--②-|
①口口口 |----|
口口口口 |----|
9
口口口② |①---|
口口口口 |--②-|
口口口① |----|
口口口口 |----|
10
口②口口 |①---|
口口口口 |--②-|
口①口口 |----|
口口口口 |----|
11
口口②口 |①---|
口口口口 |--②-|
口口①口 |----|
口口口口 |----|
12
②口口口 |①---|
口口口口 |--②-|
①口口口 |----|
口口口口 |----|
13
口口口② |①---|
口口口口 |--②-|
口口口① |----|
口口口口 |----|
14
口②口口 |①---|
口口口口 |--②-|
口①口口 |----|
口口口口 |----|
15
口口②口 |①---|
口口口口 |--②-|
口口①口 |----|
口口口口 |----|
16
口④口口 |①-②-|
①②口③ |----|
口口口口 |--③-|
口口口口 |--④-|
17
口④④① |--①-|
口口口口 |--②-|
口②③口 |③---|
口口口口 |④---|
18
口④口口 |①-②-|
①②口③ |----|
口口口口 |--③-|
口口口口 |--④-|
19
口④④① |--①-|
口口口口 |--②-|
口②③口 |③---|
口口口口 |④---|
20
口④口口 |①-②-|
①②口③ |----|
口口口口 |--③-|
口口口口 |--④-|
21
口④④① |--①-|
口口口口 |--②-|
口②③口 |③---|
口口口口 |④---|
22
口④口口 |①-②-|
①②口③ |----|
口口口口 |--③-|
口口口口 |--④-|
23
口口口① |--①-|
口口口口 |--②-|
口②③口 |③---|
口口口口 |----|
24
口口口口 |①---|
口口口口 |----|
口口口口 |②---|
①①②② |----|
25
口①①口 |①---|
④②②④ |②---|
口③③口 |③---|
口口口口 |④---|
26
口口④口 |①---|
口③口口 |----|
口口口口 |②---|
①①②② |③-④-|
27
口口口口 |----|
口口口口 |①---|
①口口① |----|
口口口口 |----|
28
口口口口 |①---|
口口口口 |----|
口口口口 |②---|
②②①① |----|
29
口①①口 |①---|
④②②④ |②---|
口③③口 |③---|
口口口口 |④---|
30
口④口口 |①---|
口口③口 |----|
口口口口 |②---|
②②①① |③-④-|
31
口口口口 |----|
②口口② |①---|
①口口① |--②-|
口口口口 |----|
32
口⑦⑥口 |①---|
口⑤④口 |②-③-|
口③②口 |④-⑤-|
①口口① |⑥-⑦-|
33
口口口口 |----|
①口口① |----|
口口口口 |--①-|
口口口口 |----|
34
口⑤④口 |①---|
口口口口 |②---|
③口口② |③---|
①口口① |④-⑤-|
35
口口口口 |--①-|
④口口④ |②-③-|
口②①口 |--④-|
口口③口 |----|
36
口⑥⑦口 |①---|
口④⑤口 |②-③-|
口②③口 |④-⑤-|
①口口① |⑥-⑦-|
37
口口口口 |----|
①口口① |----|
口口口口 |--①-|
口口口口 |----|
38
口④⑤口 |①---|
口口口口 |②---|
②口口③ |③---|
①口口① |④-⑤-|
39
④口口④ |--①-|
口口口口 |②-③-|
口①②口 |--④-|
口③口口 |----|
40
口②②口 |①---|
口口口口 |②---|
①口口①
口口口口

口口口口
④口口③
⑥口口⑤ |③-④-|
口口口口 |⑤-⑥-|
41
⑤口口⑤ |①-②-|
口②①口 |③-④-|
口④③口 |--⑤-|
口口口口 |----|
42
口②②口 |①---|
口⑥⑤口 |②---|
①④③① |③-④-|
口口口口 |⑤-⑥-|
43
口口口① |--①-|
②口口③ |②-③-|
④口口⑤ |④-⑤-|
⑥口口⑦ |⑥-⑦-|
44
口②②口 |①---|
③口口④ |②---|
⑤①①⑥ |③-④-|
口口口口 |⑤-⑥-|
45
⑤口口⑤ |①-②-|
口①②口 |③-④-|
口③④口 |--⑤-|
口口口口 |----|
46
口②②口 |①---|
口⑤⑥口 |②---|
①③④① |③-④-|
口口口口 |⑤-⑥-|
47
口口口口 |--①-|
口口口口 |②-③-|
①口口口 |----|
口②③口 |----|
48
口口口口 |----|
口口口口 |----|
口口口口 |----|
口口口口 |----|
49
口口口口 |----|
口口口口 |----|
口口口口
口口口口
50
①口口① |①---|
口②②口 |②---|
③口口③ |③---|
口④④口 |④---|
51
⑤⑤⑤⑤ |①---|
口口③口 |②-③-|
④②口④ |--④-|
①口口① |--⑤-|
52
口①②口 |----|
口③口口 |----|
口口口口 |--①-|
口口口口 |②-③-|
53
口口口口 |①---|
口口①口 |②-③-|
口口③口
口②口口

口⑥⑥口
口口⑤口
口④口口 |--④-|
口口口口 |⑤-⑥-|
54
口②③口 |----|
①口口口 |----|
口口口口 |--①-|
口口口口 |②-③-|
55
口口口④ |①---|
口口口① |②-③-|
口口口口 |--④-|
口②③口 |----|
56
口口口口 |①---|
①①③③ |②---|
④④②② |③---|
口口口口 |④---|
57
①①②② |①---|
口口口口 |②---|
口口口口 |③---|
③③④④ |④---|
58
①口口① |①---|
口②②口 |②---|
③口口③ |③---|
口④④口 |④---|
59
⑤⑤⑤⑤ |①---|
口③口口 |②-③-|
④口②④ |--④-|
①口口① |--⑤-|
60
口②①口 |----|
口口③口 |----|
口口口口 |--①-|
口口口口 |②-③-|
61
⑤④④⑤ |①---|
口①口口 |②-③-|
口③口口 |--④-|
口口②口 |--⑤-|
62
口③②口 |----|
口口口① |----|
口口口口 |--①-|
口口口口 |②-③-|
63
④口口④ |①---|
①口口口 |②-③-|
口口口口 |--④-|
口③②口 |----|
64
口口口口 |①---|
③③①① |②---|
②②④④ |③---|
口口口口 |④---|
65
②②①① |①---|
口口口口 |②---|
口口口口 |③---|
④④③③ |④---|
66
口④口口 |①-②-|
①②口③ |----|
口口口口 |--③-|
口口口口 |--④-|
67
口④④① |--①-|
口口口口 |--②-|
口②③口 |③---|
口口口口 |④---|
68
口④口口 |①-②-|
①②口③ |----|
口口口口 |--③-|
口口口口 |--④-|
69
口④④① |--①-|
口口口口 |--②-|
口②③口 |③---|
口口口口 |④---|
70
口口口口 |①---|
口口口② |----|
①口口② |②---|
①口口口 |----|
71
口口口② |①---|
①口口② |----|
①口口口 |②---|
口口口口 |----|
72
①口口口 |①---|
①口口口 |----|
口口口口 |----|
口口口口 |----|
73
①①①① |①---|
口口口口 |----|
口口口口 |----|
口口口口 |----|
74
口口口口 |①---|
口①①口 |----|
口①①口 |----|
口口口口 |----|

不確定度: 0

最終更新:2017年01月04日 15:45