炉心融解
iroha

EXTREME

Level: 8
BPM: 165
Notes: 608

1
口口口口 |----|
口口口口 |----|
口口口口 |----|
口口口口 |----|
2
口口口口 |①②③-|
口口③口 |----|
口②口口 |----|
①口口口 |----|
3
③口口④ |①②③-|
口②口口 |----|
口口①口 |④---|
口口口口 |----|
4
口口口口 |①②③④|
①口口④ |----|
口②③口 |----|
口口口口 |----|
5
口口口口 |----|
口口口口 |①---|
口口口口 |----|
口①①口 |----|
6
口口口口 |----|
口口口口 |----|
口口口口
口口口口
7
口口口口 |①-②-|
①口口② |③④⑤⑥|
⑥①②⑤
④口口③

⑩⑫⑪⑨
⑭⑧⑦⑬
口口口口 |⑦⑧⑨⑩|
口口口口 |⑪⑫⑬⑭|
8
口③口口 |①---|
④②②口 |--②-|
⑤口①口 |--③-|
口①口口 |④-⑤-|
9
口口③口 |①---|
口②②④ |--②-|
口①口⑤ |--③-|
口口①口 |④-⑤-|
10
口③口口 |①---|
④②②口 |--②-|
⑤口①口 |--③-|
口①口口 |④-⑤-|
11
口口③口 |①---|
口②②④ |--②-|
口①口⑤ |--③-|
口口①口 |④-⑤-|
12
口③口口 |①---|
④②②口 |--②-|
⑤口①口 |--③-|
口①口口 |④-⑤-|
13
口口③口 |①---|
口②②④ |--②-|
口①口⑤ |--③-|
口口①口 |④-⑤-|
14
口③口口 |①---|
④②②口 |--②-|
⑤口①口 |--③-|
口①口口 |④-⑤-|
15
口口口口 |①---|
③②②④ |--②-|
口①口口 |③---|
③口①④ |④---|
16
①②口口 |①-②-|
口口④口 |--③-|
①②③⑤ |④-⑤-|
⑦⑦⑥口 |⑥-⑦-|
17
④③口口 |--①-|
①①③② |--②-|
④口②口 |③---|
口口口口 |④---|
18
口口②① |①-②-|
口④口口 |--③-|
⑤③②① |④-⑤-|
口⑥⑦⑦ |⑥-⑦-|
19
口口③④ |--①-|
②③①① |--②-|
口②口④ |③---|
口口口口 |④---|
20
①②口口 |①-②-|
口口④口 |--③-|
①②③⑤ |④-⑤-|
⑦⑦⑥口 |⑥-⑦-|
21
④③口口 |--①-|
①①③② |--②-|
④口②口 |③---|
口口口口 |④---|
22
口口②① |①-②-|
口口口口 |--③-|
口③②①
口口口口

口口口⑦
口④口⑦
⑤口口口 |④-⑤-|
口⑥口口 |⑥-⑦-|
23
①口口口 |--①-|
①口口口 |--②-|
口口口口
②口口②

口口口口
④③③口
口③③口 |③---|
口口口口 |--④-|
24
口①③口 |①---|
口④口② |--②-|
口口口口 |③---|
口口口口 |--④-|
25
①②口⑦ |①-②-|
③口⑥⑧ |③-④-|
④⑤口口 |⑤-⑥-|
口口口口 |⑦-⑧-|
26
口口①口 |①---|
④口③④ |--②-|
⑤②口⑤ |③---|
口口口口 |④-⑤-|
27
口①②口 |--①-|
口①②④ |②-③-|
口③③口 |----|
口口口口 |--④-|
28
口③①口 |①---|
②口④口 |--②-|
口口口口 |③---|
口口口口 |--④-|
29
⑦口②① |①-②-|
⑧⑥口③ |③-④-|
口口⑤④ |⑤-⑥-|
口口口口 |⑦-⑧-|
30
口①口口 |①---|
④③口④ |--②-|
⑤口②⑤ |③---|
口口口口 |④-⑤-|
31
口①①口 |--①-|
口②②口 |②---|
口④口口 |--③-|
③口⑤口 |④-⑤-|
32
口⑥⑦口 |①---|
⑥②⑤⑦ |②-③-|
③⑤④① |④-⑤-|
口④口口 |⑥-⑦-|
33
口①②口 |----|
①口口② |----|
口口口③ |--①-|
口口③口 |②-③-|
34
②口口② |①---|
口口口口 |②---|
①口口口
口①口口

口口口口
⑥③口⑥
口口④口 |③-④-|
口⑤口口 |⑤-⑥-|
35
口口口口 |--①-|
口②①口 |②-③-|
②③③①
口口口口

口⑤口口
④口⑥口
口口口口 |--④-|
口口口口 |⑤-⑥-|
36
口口口① |①---|
口口口口 |②-③-|
口口口口
口②③口

⑥口口⑦
口⑥⑦口
口④⑤口 |④-⑤-|
④口口⑤ |⑥-⑦-|
37
②②口① |----|
口口口① |----|
口口口口 |--①-|
口口③③ |②-③-|
38
⑥③口⑥ |①---|
口②④口 |②---|
①⑤②口 |③-④-|
①口口口 |⑤-⑥-|
39
口④④口 |--①-|
⑤口口① |②-③-|
④⑥②④ |④-⑤-|
口③⑦口 |⑥-⑦-|
40
口⑥⑦口 |①---|
⑤②③口 |②-③-|
④口口口 |④-⑤-|
①口口① |⑥-⑦-|
41
口口口口 |①-②-|
口④④① |③-④-|
口③③②
口口口口

⑤口口⑤
⑥口口⑥
⑦口口⑦ |--⑤-|
口口口口 |⑥-⑦-|
42
口①②口 |①---|
口口口口 |②---|
口②①口
口口口口

⑥⑥口口
⑤口口口
④口口口 |③-④-|
③口口口 |⑤-⑥-|
43
口口④④ |--①-|
口③①⑤ |②-③-|
口②口⑥ |④-⑤-|
口口口⑦ |⑥-⑦-|
44
⑥口口⑦ |①---|
⑤②③口 |②-③-|
④口口口 |④-⑤-|
口①①口 |⑥-⑦-|
45
口口口口 |①-②-|
口口口① |③-④-|
口③③②
口④④口

口⑤⑤口
口⑥⑥口
⑦口口⑦ |--⑤-|
口口口口 |⑥-⑦-|
46
②口口② |①---|
口口口口 |②---|
口①①口
口口口口

口⑥⑥口
⑥口口⑥
口口⑤口 |③-④-|
口④③口 |⑤-⑥-|
47
口口口口 |--①-|
口②①口 |②-③-|
①口口② |----|
口③③口 |----|
48
口口口口 |----|
口口口口 |----|
口口口口 |----|
口口口口 |----|
49
①口口② |①-②-|
口③④口 |③④⑤-|
口⑤口口
口口口口
50
④①②③ |①---|
②③④① |②---|
①④③② |③---|
③②①④ |④---|
51
口①①口 |①---|
口口口口 |②-③-|
③口口②
口②③口

⑤口⑤口
口⑤口⑤
口④④口 |--④-|
④口口④ |--⑤-|
52
口②①口 |----|
②③③① |----|
口口口口 |--①-|
口口口口 |②-③-|
53
③⑥⑥③ |①---|
⑥④⑤⑥ |②-③-|
①③③② |--④-|
②⑤④① |⑤-⑥-|
54
口②口口 |----|
①②③口 |----|
①口③口 |--①-|
口口口口 |②-③-|
55
②口②① |①---|
③⑤口① |②-③-|
口③口④ |--④-|
口口④口 |--⑤-|
56
口①口③ |①-②-|
口⑥②④ |③-④-|
口口⑤口 |⑤-⑥-|
口⑦⑦口 |--⑦-|
57
④③③④ |①-②-|
②⑤⑤② |③-④-|
①⑥⑥① |⑤-⑥-|
⑦口口⑦ |⑦---|
58
③②①④ |①---|
①④③② |②---|
②③④① |③---|
④①②③ |④---|
59
口①①口 |①---|
口口口口 |②-③-|
②口口③
口③②口

口⑤口⑤
⑤口⑤口
口④④口 |--④-|
④口口④ |--⑤-|
60
口①②口 |----|
①③③② |----|
口口口口 |--①-|
口口口口 |②-③-|
61
③⑤⑤③ |①---|
⑤④④⑤ |②-③-|
②③③① |--④-|
①④④② |--⑤-|
62
口口②口 |----|
口③②① |----|
口③口① |--①-|
口口口口 |②-③-|
63
①②口② |①---|
①口口③ |②-③-|
口口③口
口口口口

口口口口
⑥口⑥口
口⑤口⑤ |--④-|
口④口④ |⑤-⑥-|
64
①口①口 |①---|
口②⑤口 |②-③-|
口⑥③口 |④-⑤-|
口④⑦口 |⑥-⑦-|
65
③③①① |①-②-|
④⑤口② |③-④-|
口口⑤口 |⑤-⑥-|
⑦⑥⑦⑥ |⑦---|
66
①②口口 |①-②-|
口口④① |--③-|
①②③⑤ |④-⑤-|
⑦⑦⑥口 |⑥-⑦-|
67
④③口口 |--①-|
①①③② |--②-|
④口②口 |③---|
口口口口 |④---|
68
口口②① |①-②-|
①④口口 |--③-|
⑤③②① |④-⑤-|
口⑥⑦⑦ |⑥-⑦-|
69
①口口① |①-②-|
口口②② |--③-|
口③口①
③口口口

⑤口口口
口④口口
⑤口口口 |④---|
口④口口 |⑤---|
70
口口口口 |①---|
口②口口 |----|
②②①口 |②---|
口口①① |----|
71
口②口口 |①---|
②②①① |----|
口口口① |②---|
口口口口 |----|
72
口口①① |①---|
口口口① |----|
口口口口 |----|
口口口口 |----|
73
口①口口 |①---|
①③②① |----|
口口①口 |②---|
③口口② |③---|
74
①口口① |①---|
口口口口 |----|
①口口① |----|
口口口口 |----|

不確定度: 0

最終更新:2017年01月04日 15:45