Against the vulgar aggressor
GUHROOVY

EXTREME

Level: 10
BPM: 210
Notes: 945

1
口口口口 |----|
口口口口 |----|
口口口口 |----|
口口口口 |----|
2
③口口口 |①-②-|
口③⑦② |③---|
①⑤②⑥ |④-⑤-|
④①口口 |⑥-⑦-|
3
口④⑦② |--①-|
③口⑥口 |--②-|
口口口⑤ |③-④-|
口口①口 |⑤-⑥⑦|
4
③口口口 |①-②-|
口③⑦② |③---|
①⑤②⑥ |④-⑤-|
④①口口 |⑥-⑦-|
5
口④口② |--①-|
③口⑧口 |--②-|
口⑥口⑦ |③-④-|
⑤口①口 |⑤⑥⑦⑧|
6
③口⑤⑤ |①-②-|
口③口② |③---|
①口②口 |④---|
口①④④ |⑤---|
7
②②口口 |①---|
④口④口 |②---|
口③口③ |③---|
①①口口 |④---|
8
③口⑤⑤ |①-②-|
口③口② |③---|
①口②口 |④---|
口①④④ |⑤---|
9
②②口口 |①---|
口③③口 |②---|
④口⑤④ |③---|
①①⑥口 |④-⑤⑥|
10
口⑤⑥口 |①-②-|
③口口④ |③-④-|
口⑦⑧口 |⑤-⑥-|
①口口② |⑦-⑧-|
11
③口口④ |①-②-|
口⑤⑥⑨ |③-④-|
口⑦⑧口 |⑤-⑥-|
①口口② |⑦-⑧⑨|
12
③口口④ |①-②-|
口⑤⑥口 |③-④-|
口口口口 |⑤-⑥-|
①⑦⑧② |⑦-⑧-|
13
③口口④ |①-②-|
⑤口⑥⑦ |③-④-|
①口口② |⑤-⑥⑦|
⑧口⑨⑩ |⑧-⑨⑩|
14
⑥口④⑧ |①-②-|
口②口口 |③-④-|
⑤口③⑦ |⑤-⑥-|
口①口口 |⑦-⑧-|
15
口⑥口口 |①-②-|
②口口④ |③-④-|
⑩⑤口⑧ |⑤-⑥-|
①⑨⑦③ |⑦⑧⑨⑩|
16
口口⑧⑥ |①-②-|
⑤①②口 |③-④-|
口口⑦口 |⑤-⑥-|
③口口④ |⑦-⑧-|
17
①②口口 |①②③④|
⑩⑩④③ |⑤⑥⑦⑧|
⑤⑥口口 |⑨---|
⑨口⑧⑦ |⑩---|
18
①①①① |①---|
⑤⑤⑤⑤ |②---|
②②②② |③---|
④③③④ |④-⑤-|
19
①口口② |①---|
口口口口 |②---|
③口口口 |③---|
口④④口 |④---|
20
口①①口 |①---|
③③③③ |②---|
口②②口 |③---|
④④④④ |--④-|
21
①①①① |--①-|
④口⑤口 |②---|
口②③口 |③---|
口口口口 |④-⑤-|
22
口⑤⑤口 |①-②-|
口⑥⑥① |③---|
④④④④ |④---|
口口②③ |⑤-⑥-|
23
①口口口 |①---|
③口口口 |②---|
④④④④ |③---|
口②②口 |④---|
24
①①①① |①---|
③③③③ |----|
口口口口 |②---|
②②②② |③---|
25
①①①① |①---|
口口口口 |----|
口①①口 |----|
口②②口 |②---|
26
①①口③ |①-②③|
④④②口 |④-⑤-|
⑩⑦⑧⑤ |⑥⑦--|
⑥⑨⑧⑤ |⑧-⑨⑩|
27
④⑩①③ |①-②③|
⑨口②口 |④-⑤-|
口⑦⑧⑤ |⑥⑦--|
⑥口⑧⑤ |⑧-⑨⑩|
28
口口口④ |①-②③|
口③⑦① |④-⑤-|
②口⑩⑥ |⑥⑦--|
⑧⑤口⑨ |⑧-⑨⑩|
29
①⑩④⑦ |①-②③|
⑨③⑥口 |④-⑤-|
②口口⑧ |⑥⑦--|
口⑤⑤口 |⑧-⑨⑩|
30
⑦⑩口口 |①-②③|
⑨⑥口① |④-⑤-|
口③口⑧ |⑥⑦--|
②⑤⑤④ |⑧-⑨⑩|
31
口⑩口① |①-②③|
⑨⑦口④ |④-⑤-|
⑥③口⑧ |⑥⑦--|
②口⑤⑤ |⑧-⑨⑩|
32
口口口① |①-②③|
口口口④ |④-⑤-|
口③口口
②口⑤⑤

⑦口口⑩
口⑥⑨口
口口口口 |⑥⑦--|
口⑧口口 |⑧-⑨⑩|
33
⑦口口⑩ |①-②③|
①⑥⑨④ |④-⑤-|
口③口口 |⑥⑦--|
②⑧口⑤ |⑧-⑨⑩|
34
⑩口口口 |①-②③|
④⑨口⑦ |④-⑤-|
①口⑥③ |⑥⑦--|
⑤口②⑧ |⑧-⑨⑩|
35
口⑧⑤① |①-②③|
口口口口 |④-⑤-|
③⑦⑩④ |⑥⑦--|
⑥②口⑨ |⑧-⑨⑩|
36
④口口③ |①-②③|
①⑦②口 |④-⑤-|
⑥⑩口⑧ |⑥⑦--|
⑨⑤⑤口 |⑧-⑨⑩|
37
⑦③口④ |①-②③|
②⑥口① |④-⑤-|
⑧口口⑩ |⑥⑦--|
口口⑨⑤ |⑧-⑨⑩|
38
⑦③口④ |①-②③|
②⑥口⑩ |④-⑤-|
⑧口⑨口 |⑥⑦--|
①口口⑤ |⑧-⑨⑩|
39
⑦③口④ |①-②③|
②⑥⑩口 |④-⑤-|
口口口⑨ |⑥⑦--|
①⑧口⑤ |⑧-⑨⑩|
40
⑦口口⑩ |①-②③|
④⑥⑨② |④-⑤-|
①口③口 |⑥⑦--|
⑧口口⑤ |⑧-⑨⑩|
41
口④⑧口 |①-②③|
⑨口口口 |④-⑤-|
①⑩⑦③ |⑥⑦--|
口⑤②⑥ |⑧-⑨⑩|
42
⑤口口口 |①-②-|
口③⑧② |③-④-|
口口口⑥ |⑤-⑥-|
①⑦④口 |⑦-⑧-|
43
口口⑧② |①-②-|
⑦③口⑥ |③-④-|
①⑤口口 |⑤-⑥-|
口口口④ |⑦-⑧-|
44
口口⑧④ |①-②-|
⑦③⑥口 |③-④-|
口口口② |⑤-⑥-|
⑤①口口 |⑦-⑧-|
45
口口⑧④ |①-②-|
⑦③口口 |③-④-|
⑤①口⑥ |⑤-⑥-|
口口②口 |⑦-⑧-|
46
口口口⑥ |①-②-|
口⑤②⑧ |③-④-|
⑦①口口 |⑤-⑥-|
口③口④ |⑦-⑧-|
47
①口⑥口 |①-②-|
口⑤②⑧ |③-④-|
口③口口 |⑤-⑥-|
⑦口口④ |⑦-⑧-|
48
口口口④ |①-②-|
①⑦口口 |③-④-|
⑤③⑧⑥ |⑤-⑥-|
口口②口 |⑦-⑧-|
49
口⑦②口 |①-②-|
口口口⑥ |③-④-|
⑤③口⑧ |⑤-⑥-|
①口口④ |⑦-⑧-|
50
口口口口 |①---|
①②①口 |----|
②口②口 |②---|
①②①口 |----|
51
口口口口 |①---|
①②①口 |----|
②口②口 |②---|
①②①③ |③---|
52
口①②① |①---|
口②口② |----|
口①②① |②---|
口口口口 |----|
53
口①②① |①---|
口②口② |----|
口①②① |②---|
口③口口 |③---|
54
②①②口 |①---|
①口①口 |----|
②①②口 |②---|
口口口口 |----|
55
口③口口 |①---|
口①②① |----|
口②口② |②---|
口①②① |③---|
56
口口口口 |①---|
口①②口 |----|
①②①② |②---|
口①②口 |----|
57
口②①② |①---|
口①②① |----|
口②①② |②---|
③口口口 |③---|
58
①口口口 |①-②-|
②口口口 |③---|
③口④⑤ |④---|
口口①③ |⑤---|
59
口口口口 |①---|
口④口口 |②---|
口④③④ |③---|
口口①② |④---|
60
①口口口 |①-②-|
②口口口 |③---|
③口④⑤ |④---|
口口①③ |⑤---|
61
口口口口 |①---|
口⑤口口 |②---|
口⑥③④ |③---|
口口①② |④-⑤⑥|
62
③③口口 |①---|
口⑥口口 |②-③-|
口⑦④⑤ |④---|
口①①② |⑤-⑥⑦|
63
③③口⑦ |①---|
口口口⑧ |②-③-|
⑤口④⑤ |④---|
⑥①①② |⑤⑥⑦⑧|
64
③③口口 |①---|
口⑥口口 |②-③-|
口⑦④⑤ |④---|
口口①② |⑤-⑥⑦|
65
③口口④ |①---|
口口口口 |②---|
③口③④ |③---|
口①①② |④---|
66
⑦②口口 |①-②-|
口①⑥③ |③-④-|
口④口⑧ |⑤-⑥-|
口⑧口⑤ |⑦-⑧-|
67
⑦口①⑧ |①-②-|
①④⑨④ |③-④-|
③⑤③口 |⑤-⑥-|
⑥口②⑥ |⑦-⑧⑨|
68
口③④口 |①-②-|
⑤⑥口口 |③-④-|
口口⑧② |⑤-⑥-|
⑦①⑤⑥ |⑦-⑧-|
69
⑧口⑦⑤ |①-②-|
⑨口⑥② |③-④⑤|
④①⑪③ |⑥-⑦-|
口③⑩口 |⑧⑨⑩⑪|
70
⑦口口口 |①-②-|
口①⑥③ |③-④-|
⑧④⑧口 |⑤-⑥-|
②口口⑤ |⑦-⑧-|
71
口①口① |①-②-|
②⑨⑥④ |③-④-|
口⑧口口 |⑤-⑥-|
⑦⑤③口 |⑦-⑧⑨|
72
③⑥①⑥ |①-②-|
④口⑨口 |③-④-|
⑦口⑧② |⑤-⑥-|
口⑤口⑤ |⑦-⑧⑨|
73
②口②④ |①---|
口①口① |②---|
口②口② |③---|
①③①③ |④---|
74
⑦②口口 |①-②-|
口①⑥③ |③-④-|
口④口⑧ |⑤-⑥-|
口⑧口⑤ |⑦-⑧-|
75
⑦口①⑧ |①-②-|
①④⑨④ |③-④-|
③⑤③口 |⑤-⑥-|
⑥口②⑥ |⑦-⑧⑨|
76
口③④口 |①-②-|
⑤⑥口口 |③-④-|
口口⑧② |⑤-⑥-|
⑦①⑤⑥ |⑦-⑧-|
77
⑤⑥⑦⑧ |①-②-|
⑩⑨④② |③-④-|
④①口③ |⑤⑥⑦⑧⑨---|
口③口⑩ |⑩---|
78
口口口口 |①②③④|
⑨口⑥⑧ |⑤-⑥-|
⑦②⑩④ |⑦-⑧-|
①⑤③口 |⑨-⑩-|
79
⑦⑧⑨⑩ |①②③④|
口⑪⑥⑪ |⑤-⑥-|
⑪②⑪④ |----⑦⑧⑨⑩|
①⑤③⑪ |--⑪-|
80
口⑥口口 |--①-|
④口③口 |②-③-|
口②口① |④-⑤-|
⑤口口口 |--⑥-|
81
⑥口③⑥ |①-②-|
口③口口 |--③-|
②④⑤② |--④⑤|
口①①口 |⑥---|
82
口②口口 |①-②-|
①⑦口③ |③---|
口⑥口口 |④-⑤-|
④⑤口⑥ |⑥-⑦-|
83
①④口③ |①-②-|
口口⑧口 |③-④-|
⑤口②⑦ |⑤-⑥-|
口⑥口口 |⑦-⑧-|
84
口口②口 |①-②-|
①⑦口③ |③---|
口⑤口口 |④-⑤-|
④口口⑥ |⑥-⑦-|
85
①②口③ |①-②-|
口口④口 |③-④-|
⑤⑥口⑦ |⑤-⑥-|
口口⑧口 |⑦-⑧-|
86
口⑥口② |①---|
①①口② |②---|
口口④口 |③-④-|
③口口⑤ |⑤-⑥-|
87
①口⑥③ |①-②-|
口口口口 |③-④-|
⑤口口⑦ |⑤-⑥-|
口④②口 |⑦---|
88
④②口④ |①---|
①①①① |②---|
⑤①①⑤ |③-④-|
③口口③ |--⑤-|
89
口③③口 |--①-|
口①①口 |②---|
口④⑤口 |③-④⑤|
⑥②②⑥ |⑥---|
90
口⑪⑫④ |①-②-|
③⑦⑧② |③-④-|
①⑨⑩口 |⑤⑥⑦⑧|
口⑤⑥口 |⑨⑩⑪⑫|
91
口⑪⑫④ |①-②-|
③⑦⑧② |③-④-|
①⑨⑩口 |⑤⑥⑦⑧|
口⑤⑥口 |⑨⑩⑪⑫|
92
口⑪⑫④ |①-②-|
③⑦⑧② |③-④-|
①⑨⑩口 |⑤⑥⑦⑧|
口⑤⑥口 |⑨⑩⑪⑫|
93
口口口④ |①-②-|
③⑦⑧② |③-④-|
①口口口 |⑤⑥⑦⑧|
⑨⑤⑥⑨ |⑨---|
94
⑤①②⑩ |①-②-|
③⑨口④ |③-④-|
口口⑧口 |⑤-⑥-|
⑦口⑥口 |⑦⑧⑨⑩|
95
⑤①②口 |①-②-|
③口口④ |③-④-|
口口口口 |⑤-⑥-|
⑦口⑥⑦ |⑦---|
96
⑬⑦⑥⑯ |①②③④|
⑪①④⑩ |⑤⑥⑦⑧|
③⑤②⑧ |⑨⑩⑪⑫|
⑮⑨⑫⑭ |⑬⑭⑮⑯|
97
⑬⑦⑥⑯ |①②③④|
⑪①④⑩ |⑤⑥⑦⑧|
③⑤②⑧ |⑨⑩⑪⑫|
⑮⑨⑫⑭ |⑬⑭⑮⑯|
98
口④③口 |①-②-|
口⑤②口 |③-④-|
口⑥①口 |⑤-⑥-|
口⑦⑧口 |⑦-⑧-|
99
口④③口 |①-②-|
⑤口口② |③-④-|
⑥口⑨① |⑤-⑥-|
口⑦⑧口 |⑦-⑧⑨|
100
口口口口 |①---|
口①口口 |----|
口口口口 |----|
口口口口 |----|

不確定度: 0

最終更新:2017年06月21日 21:17