Ryu✩ feat.青龍

EXTREME

Level: 10
BPM: 191
Notes: 659

1
口口口口 |----|
口口口口 |----|
口口口口 |----|
口口口口 |----|
2
口口口口 |----|
口口口口 |----|
口口口口 |----|
口口口口 |----|
3
口口口口 |----|
口口口口 |----|
口口口口 |----|
口口口口 |----|
4
口口口口 |----|
口口口口 |----|
口口口口 |----|
口口口口 |----|
5
口口口口 |----|
口口口口 |----|
口口口口 |----|
口口口口 |----|
6
口口口口 |----|
口口口口 |----|
口口口口 |----|
口口口口 |----|
7
②口口② |①---|
④口口④ |②---|
口①①口 |--③-|
口③③口 |④---|
8
⑤②②⑤ |①---|
口口口口 |②-③-|
口③③口 |--④-|
①④④① |⑤---|
9
④口口④ |①---|
②口口② |②---|
口口口口 |--③-|
①③③① |④---|
10
⑤口口⑤ |①---|
口③③口 |②-③-|
②①①② |--④-|
④口口④ |⑤---|
11
口③口⑩ |①②③-|
⑨⑤口② |④-⑤-|
⑦口①口 |⑥⑦-⑧|
⑥④口⑧ |-⑨-⑩|
12
②③⑩口 |①②③-|
⑨口⑤① |④-⑤-|
⑥⑦口口 |⑥⑦-⑧|
口口④⑧ |-⑨-⑩|
13
口③口⑩ |①②③-|
⑨⑤口② |④-⑤-|
⑦口①口 |⑥⑦-⑧|
⑥④口⑧ |-⑨-⑩|
14
②③⑩口 |①②③-|
⑨口⑤① |④-⑤-|
⑥⑦口口 |⑥⑦-⑧|
口口④⑧ |-⑨-⑩|
15
口③口⑩ |①②③-|
⑨⑤口② |④-⑤-|
⑦口①口 |⑥⑦-⑧|
⑥④口⑧ |-⑨-⑩|
16
②③⑩口 |①②③-|
⑨口⑤① |④-⑤-|
⑥⑦口口 |⑥⑦-⑧|
口口④⑧ |-⑨-⑩|
17
口口口⑤ |①②③-|
口口口② |④-⑤-|
口口①口
口③④口

⑧⑩口口
口⑥⑨⑬
口口口⑪ |⑥⑦⑧⑨|
⑫口口⑦ |⑩⑪⑫⑬|
18
③口④④ |①---|
②③④口 |②---|
①②口④ |③---|
口①④④ |④---|
19
口口口④ |①---|
③口口① |②---|
①②②④ |③---|
③口口口 |④---|
20
⑥口⑤口 |①--②|
⑥③②② |--③-|
⑥口④口 |④-⑤-|
⑥口①① |⑥---|
21
口②口⑤ |①---|
口④③口 |②---|
口②口⑤ |③-④-|
口①口① |⑤---|
22
②②⑥⑥ |①--②|
⑤口③⑥ |--③-|
④口⑥口 |④-⑤-|
①①⑥⑥ |⑥---|
23
③口⑥口 |①---|
⑤②②口 |②-③-|
③口⑥① |④-⑤-|
①④口口 |⑥---|
24
③口口③ |①--②|
口②②④ |--③-|
口口口口 |④---|
①口④① |----|
25
②口④④ |①---|
②口③④ |②---|
②①④③ |③---|
②①④④ |④---|
26
⑤①⑥⑥ |①--②|
⑤③⑥口 |③-④-|
⑤③口⑥ |⑤---|
②④⑥⑥ |⑥---|
27
口①口④ |①---|
口②口口 |②---|
口③口④ |③---|
口④口口 |④---|
28
①口口口 |①---|
②口口口 |②---|
③口口口 |③---|
④口口④ |④---|
29
口①④② |①---|
口②口口 |②---|
口③④② |③---|
口④口口 |④---|
30
①口口口 |①---|
②口口口 |②---|
③口④口 |③-④-|
⑤口⑥口 |⑤-⑥-|
31
口①②口 |①-②-|
口③④⑦ |③-④-|
口⑤⑥口 |⑤-⑥-|
口⑦⑧⑦ |⑦-⑧-|
32
①口②⑤ |①-②-|
③口④口 |③-④-|
⑤口⑥⑤ |⑤-⑥-|
⑦口⑧口 |⑦-⑧-|
33
口①②口 |①-②-|
口③④口 |③-④-|
口⑤⑥口 |⑤-⑥-|
口⑦⑧口 |⑦-⑧-|
34
①⑥⑦② |①②③④|
③⑧⑨④ |⑤-⑥⑦|
⑤⑩口口 |⑧⑨⑩-|
⑪口口口 |⑪---|
35
口口口口 |----|
口口口口 |----|
口口口口 |----|
口口口口 |----|
36
口口口口 |----|
口口口口 |----|
口口口口 |----|
口口口口 |----|
37
口口口口 |----|
口口口口 |----|
口口口口 |----|
口口口口 |----|
38
口口口口 |----|
口口口口 |----|
口口口口 |----|
口口口口 |----|
39
口④口口 |①---|
口③口口 |②---|
口②口口 |③---|
口①口口 |④---|
40
④口口口 |①---|
③口口口 |②---|
②口口口 |③---|
①口口口 |④---|
41
口④口口 |①---|
口③口口 |②---|
口②口口 |③---|
口①口口 |④---|
42
④口口口 |①---|
③口口口 |②---|
②口口口 |③---|
①口口口 |④---|
43
口③口⑩ |①②③-|
⑨⑤口② |④-⑤-|
⑦口①① |⑥⑦-⑧|
⑥④口⑧ |-⑨-⑩|
44
②③⑩口 |①②③-|
⑨口⑤① |④-⑤-|
⑥⑦口① |⑥⑦-⑧|
口口④⑧ |-⑨-⑩|
45
口③口⑩ |①②③-|
⑨⑤口② |④-⑤-|
⑦口①① |⑥⑦-⑧|
⑥④口⑧ |-⑨-⑩|
46
②③⑩口 |①②③-|
⑨口⑤① |④-⑤-|
⑥⑦口① |⑥⑦-⑧|
口口④⑧ |-⑨-⑩|
47
口③口⑩ |①②③-|
⑨⑤口② |④-⑤-|
⑦口①① |⑥⑦-⑧|
⑥④口⑧ |-⑨-⑩|
48
②③⑩口 |①②③-|
⑨口⑤① |④-⑤-|
⑥⑦口① |⑥⑦-⑧|
口口④⑧ |-⑨-⑩|
49
口口口⑤ |①②③-|
口口口② |④-⑤-|
口口①口
口③④口

⑧⑩口口
口⑥⑨⑬
口口口⑪ |⑥⑦⑧⑨|
⑫口口⑦ |⑩⑪⑫⑬|
50
③口④④ |①---|
②③④口 |②---|
①②口④ |③---|
口①④④ |④---|
51
口③口⑧ |①②③-|
口⑤口② |④-⑤-|
口⑦①⑧ |⑥-⑦-|
⑥④口口 |⑧---|
52
①①⑧口 |①--②|
⑦③口② |--③-|
④⑤口口 |④⑤-⑥|
③口②⑥ |-⑦-⑧|
53
口口口① |①---|
口②口口 |②---|
④④④① |③-④-|
③②口口 |----|
54
②③⑧⑦ |①②③-|
⑦口⑤① |④-⑤-|
口⑧口⑥ |⑥-⑦-|
⑥口④口 |⑧---|
55
口③口⑨ |①②③-|
口⑤口② |④-⑤-|
⑦⑧①⑨ |⑥⑦-⑧|
⑥④口口 |⑨---|
56
口③③⑤ |①--②|
①口④① |--③-|
口口⑤口 |④---|
口②②④ |⑤---|
57
②口④④ |①---|
②口③④ |②---|
②①④③ |③---|
②口④④ |④---|
58
⑤①⑥⑥ |①--②|
⑤③⑥口 |③-④-|
⑤③口⑥ |⑤---|
②④⑥⑥ |⑥---|
59
口③口⑩ |①②③-|
⑨⑤口② |④-⑤-|
⑦口①口 |⑥⑦-⑧|
⑥④口⑧ |-⑨-⑩|
60
②③⑩口 |①②③-|
⑨口⑤① |④-⑤-|
⑥⑦口① |⑥⑦-⑧|
⑥④④⑧ |-⑨-⑩|
61
口③口⑩ |①②③-|
⑨⑤口② |④-⑤-|
⑦⑥①① |⑥⑦-⑧|
⑥④④⑧ |-⑨-⑩|
62
②③⑩口 |①②③-|
⑨口⑤① |④-⑤-|
⑥⑦口① |⑥⑦-⑧|
⑥④④⑧ |-⑨-⑩|
63
口③口⑩ |①②③-|
⑨⑤口② |④-⑤-|
⑦⑥①① |⑥⑦-⑧|
⑥④④⑧ |-⑨-⑩|
64
②③⑩口 |①②③-|
⑨口⑤① |④-⑤-|
⑥⑦口① |⑥⑦-⑧|
⑥④④⑧ |-⑨-⑩|
65
口口口⑤ |①②③-|
口口口② |④-⑤-|
口口①口
口③④口

⑧⑩口口
口⑥⑨⑬
口口口⑪ |⑥⑦⑧⑨|
⑫口口⑦ |⑩⑪⑫⑬|
66
③口④④ |①---|
②③④口 |②---|
①②口④ |③---|
口①④④ |④---|
67
口③口⑩ |①②③-|
⑨⑤口② |④-⑤-|
⑦口①口 |⑥⑦-⑧|
⑥④口⑧ |-⑨-⑩|
68
口口④口 |①---|
④③①口 |②---|
口①②① |③---|
③口①口 |④---|
69
②③⑩口 |①②③-|
⑨口⑤① |④-⑤-|
⑥⑦口① |⑥⑦-⑧|
⑥④④⑧ |-⑨-⑩|
70
①口⑨③ |①--②|
⑧②⑤口 |--③-|
④⑥口① |④-⑤-⑥-|
③口②⑦ |⑦-⑧-⑨-|
71
口③口⑩ |①②③-|
⑨⑤口② |④-⑤-|
⑦⑥①① |⑥⑦-⑧|
⑥④④⑧ |-⑨-⑩|
72
②③⑩口 |①②③-|
⑨口⑤① |④-⑤-|
⑥⑦口① |⑥⑦-⑧|
⑥④④⑧ |-⑨-⑩|
73
口口口⑤ |①②③-|
口口口② |④-⑤-|
口口①口
口③④口

⑧⑩口口
口⑥⑨⑬
口口口⑪ |⑥⑦⑧⑨|
⑫口口⑦ |⑩⑪⑫⑬|
74
③口④④ |①---|
②③④口 |②---|
①②口④ |③---|
口①④④ |④---|

不確定度: 0

最終更新:2017年06月21日 21:15