Hollywood Galaxy
dj TAKA

BASIC

Level: 5
BPM: 186
Notes: 347

1
口口口口 |----|
口口口口 |----|
口口口口 |----|
口口口口 |----|
2
①口口口 |①---|
口口口口 |----|
口口口口 |----|
口口口口 |----|
3
口口口① |①---|
口口口口 |----|
口口口口 |----|
口口口口 |----|
4
①口口口 |①---|
口口口口 |----|
口口口口 |----|
口口口口 |----|
5
口口口① |①---|
口口②口 |②---|
口③口口 |③---|
④口口口 |④---|
6
口口口口 |①---|
口口口口 |----|
口口口口 |----|
口口口① |----|
7
口口口口 |①---|
口口口口 |----|
口口口口 |----|
①口口口 |----|
8
口口口口 |①---|
口口口口 |----|
口口口口 |----|
口口口① |----|
9
口口口④ |①---|
口口③口 |②---|
口②口口 |③---|
①口口口 |④---|
10
①口口④ |①---|
口②③口 |②---|
口口口口 |③---|
口口口口 |④---|
11
①口口④ |①---|
口②③口 |②---|
口口口口 |③---|
口口口口 |④---|
12
①口口④ |①---|
口②③口 |②---|
口口口口 |③---|
口口口口 |④---|
13
①口口口 |①---|
口②口口 |②---|
口口③口 |③---|
口口口④ |④---|
14
口口口口 |①---|
口口口口 |②---|
口②③口 |③---|
①口口④ |④---|
15
口口口口 |①---|
口口口口 |②---|
口②③口 |③---|
①口口④ |④---|
16
口口口口 |①---|
口口口口 |②---|
口②③口 |③---|
①口口④ |④---|
17
口口口④ |①---|
口口③口 |②---|
口②口口 |③---|
①口口口 |④---|
18
口口口口 |----|
口口口口 |----|
口口口口 |----|
口口口口 |----|
19
口②口口 |①---|
①①①口 |----|
口口口口 |②---|
口③口口 |③---|
20
口口②口 |①---|
口①①① |----|
口口口口 |②---|
口口③口 |③---|
21
口②口口 |①---|
①①①口 |----|
口口口口 |②---|
口③口口 |③---|
22
口口②口 |①---|
口①①① |----|
口口口口 |②---|
口口③口 |③---|
23
口③口口 |①---|
口口口口 |----|
①①①口 |②---|
口②口口 |③---|
24
口口③口 |①---|
口口口口 |----|
口①①① |②---|
口口②口 |③---|
25
口③口口 |①---|
口口口口 |----|
①①①口 |②---|
口②口口 |③---|
26
口口③口 |①---|
口口口口 |----|
口①①① |②---|
口口②口 |③---|
27
口口口 |①---|
口口② |----|
口①① |②---|
口口③ |③---|
28
口口口口 |①---|
口口②口 |----|
口口①① |②---|
口口③口 |③---|
29
②口口口 |①---|
①①口 |----|
③口口 |②---|
口口 |③---|
30
口口②口 |①---|
①① |----|
③口 |②---|
|③---|
31
②口口 |①---|
①①口 |----|
③口口 |②---|
|③---|
32
口②口口 |①---|
①①口口 |----|
口③口口 |②---|
口口口口 |③---|
33
②口口口 |①---|
①①口口 |----|
③口口口 |②---|
口口口口 |③---|
34
口口口口 |①---|
口①①口 |----|
口①①口 |----|
口口口 |----|
35
①②③口 |①-②-|
口④口口 |③---|
口⑤口口 |④---|
口口口口 |⑤---|
36
口口口口 |①-②-|
口口④口 |③---|
口口⑤口 |④---|
口③②① |⑤---|
37
①②③口 |①-②-|
口④口口 |③---|
口⑤口口 |④---|
口口口口 |⑤---|
38
口口口口 |①-②-|
口口④口 |③---|
口口⑤口 |④---|
口③②① |⑤---|
39
口口口口 |①-②-|
口口口口 |③---|
口口口口 |----|
①②③口 |----|
40
①口口② |①-②-|
③口口④ |③-④-|
⑤口口⑥ |⑤-⑥-|
⑦口口⑧ |⑦-⑧-|
41
口⑦⑧口 |①-②-|
口⑤⑥口 |③-④-|
口③④口 |⑤-⑥-|
口①②口 |⑦-⑧-|
42
①口口② |①-②-|
③口口④ |③-④-|
⑤口口⑥ |⑤-⑥-|
⑦口口⑧ |⑦-⑧-|
43
①②③口 |①-②-|
口④口口 |③---|
口⑤口口 |④---|
口口口口 |⑤---|
44
口口口口 |①-②-|
口口④口 |③---|
口口⑤口 |④---|
口③②① |⑤---|
45
①②③口 |①-②-|
口④口口 |③---|
口⑤口口 |④---|
口口口口 |⑤---|
46
口口口口 |①-②-|
口口④口 |③---|
口口⑤口 |④---|
口③②① |⑤---|
47
口口口口 |①-②-|
口口口口 |③---|
口口口口 |----|
①②③口 |----|
48
①口口② |①-②-|
③口口④ |③-④-|
⑤口口⑥ |⑤-⑥-|
⑦口口⑧ |⑦-⑧-|
49
口⑦⑧口 |①-②-|
口⑤⑥口 |③-④-|
口③④口 |⑤-⑥-|
口①②口 |⑦-⑧-|
50
①口口② |①-②-|
③口口④ |③-④-|
⑤口口⑥ |⑤-⑥-|
⑦口口⑧ |⑦-⑧-|
51
口口口口 |①---|
口口 |----|
口口 |----|
口口 |----|
52
|①---|
口口口口 |----|
口口口口 |----|
口口 |----|
53
口口口 |①---|
口口口口 |----|
口口口口


口口口口
口口口口
|②---|
口口口 |----|
54
口口口口 |①---|
口 |----|
口口口
口口口口

口口口口
口口口
口口口口 |----|
口口②口 |②---|
55
口口口口 |①---|
口口口口 |----|
|----|
口口口口 |----|
56
口 |①---|
口口口口 |----|
口口口 |----|
口口口口 |----|
57
口口口 |①---|
口口口 |----|
口口
口口

口口
口口
口口 |②---|
口口口 |----|
58
口口口① |①---|
②口口口 |②---|
口③ |③---|
④口口口 |④---|
59
口口口口 |①---|
口口 |----|
②口 |②---|
口口 |----|
60
口口口① |①---|
口②口口 |----|
口口口口 |②---|
口口 |----|
61
口口口口 |①---|
口口口口 |----|
口口口口


口口口口
口口口口
|②---|
口口口 |----|
62
口口口口 |①---|
口 |----|
口口口
口口口口

口口②口
口口口
口口口口 |②---|
口口口口 |③---|
63
口口口口 |①---|
口口口口 |----|
|②---|
口②口口 |----|
64
口 |①---|
口口口② |----|
口口口 |②---|
口口口口 |----|
65
口口口 |①---|
口口口口 |----|
口口口口


口口口口
口口口口
②口口口 |②---|
口口口 |----|
66
口口口口 |①---|
口①①口 |----|
口①①口 |----|
口口口口 |----|
67
①口口④ |①---|
②口口口 |②---|
③口口口 |③---|
口口口口 |④---|
68
口①②口 |①-②-|
口③④口 |③-④-|
口⑤⑥口 |⑤-⑥-|
口⑦⑧口 |⑦-⑧-|
69
①口口口 |①---|
口口口② |②---|
③口口口 |③---|
口口口④ |④---|
70
口口口口 |①---|
口①①口 |----|
口口口口 |----|
口口口口 |----|
71
④口口① |①---|
口口口② |②---|
口口口③ |③---|
口口口口 |④---|
72
口②①口 |①-②-|
口④③口 |③-④-|
口⑥⑤口 |⑤-⑥-|
口⑧⑦口 |⑦-⑧-|
73
口口口① |①---|
②口口口 |②---|
口口口③ |③---|
④口口口 |④---|
74
口口口口 |①---|
口①①口 |----|
口口口口 |----|
口口口口 |----|
75
①①口口 |①---|
②口口口 |②---|
③口口口 |③---|
口④口口 |④---|
76
口口口口 |①---|
③③①① |②---|
口②④口 |③---|
口口口口 |④---|
77
口口口口 |①---|
口口口口 |②---|
口②④口 |③---|
①①③③ |④---|
78
口口口口 |①---|
①①口口 |----|
口口口② |----|
口口口口 |②---|
79
口口①① |①---|
口②口口 |②---|
口口③口 |③---|
④口口口 |④---|
80
①①口口 |①---|
口口③③ |②---|
口口口口 |③---|
口④口② |④---|
81
口①①口 |①---|
口③③口 |②---|
口口口口 |③---|
④口②口 |④---|
82
口口口口 |①---|
口口口口 |----|
①口口① |----|
口口口口 |----|
83
口口口口 |①---|
口①①口 |----|
口①①口 |----|
口口口口 |----|

不確定度: 0

最終更新:2016年12月20日 03:26