Hollywood Galaxy
dj TAKA

ADVANCED

Level: 8
BPM: 186
Notes: 589

1
口口口口 |----|
口口口口 |----|
口口口口 |----|
口口口口 |----|
2
口③口口 |①---|
②口④② |②---|
口⑤口口 |--③-|
①口口口 |④-⑤-|
3
口口③口 |①---|
②④口② |②---|
口口⑤口 |--③-|
口口口① |④-⑤-|
4
口③口口 |①---|
②口④② |②---|
口⑤口口 |--③-|
①口口口 |④-⑤-|
5
口口⑥⑤ |①-②-|
⑧⑦口口 |③-④-|
口口②① |⑤-⑥-|
④③口口 |⑦-⑧-|
6
④③⑤口 |①-②-|
口⑥②① |③-④-|
口口⑦口 |--⑤-|
口口口口 |⑥-⑦-|
7
口⑤口口 |①-②-|
口口③④ |③-④-|
①②口⑥ |--⑤-|
⑦口口口 |⑥-⑦-|
8
口口⑤口 |①-②-|
口⑥口口 |③-④-|
④③⑦口 |--⑤-|
口口②① |⑥-⑦-|
9
⑤⑥⑦⑧ |①-②-|
①口③口 |③-④-|
口②口④ |⑤-⑥-|
口口口口 |⑦-⑧-|
10
口③口口 |①---|
②口④② |②---|
口⑤口口 |--③-|
①口口口 |④-⑤-|
11
口口③口 |①---|
②④口② |②---|
口口⑤口 |--③-|
口口口① |④-⑤-|
12
口③口口 |①---|
②口④② |②---|
口⑤口口 |--③-|
①口口口 |④-⑤-|
13
口口⑥⑤ |①-②-|
⑧⑦口口 |③-④-|
口口②① |⑤-⑥-|
④③口口 |⑦-⑧-|
14
④③⑤口 |①-②-|
口⑥②① |③-④-|
口口⑦口 |--⑤-|
口口口口 |⑥-⑦-|
15
口⑤口口 |①-②-|
口口③④ |③-④-|
①②口⑥ |--⑤-|
⑦口口口 |⑥-⑦-|
16
口口⑤口 |①-②-|
口⑥口口 |③-④-|
④③⑦口 |--⑤-|
口口②① |⑥-⑦-|
17
⑤⑥⑦⑧ |①-②-|
①口③口 |③-④-|
口②口④ |⑤-⑥-|
口口口口 |⑦-⑧-|
18
口口口口 |----|
口口口口 |----|
口口口口 |----|
口口口口 |----|
19
口④③口 |①-②-|
口⑥⑤口 |----|
口口口口 |③-④-|
①口②口 |⑤-⑥-|
20
③口口④ |①-②-|
⑤口口⑥ |----|
口口口口 |③-④-|
口②口① |⑤-⑥-|
21
口④③口 |①-②-|
口⑥⑤口 |----|
口口口口 |③-④-|
①口②口 |⑤-⑥-|
22
③口口④ |①-②-|
⑤口口⑥ |----|
口口口口 |③-④-|
口②口① |⑤-⑥-|
23
口⑥③口 |①-②-|
口口口口 |----|
口④⑤口 |③-④-|
①口②口 |⑤-⑥-|
24
③口口⑥ |①-②-|
口口口口 |----|
⑤口口④ |③-④-|
口②口① |⑤-⑥-|
25
口⑥③口 |①-②-|
口口口口 |----|
口④⑤口 |③-④-|
①口②口 |⑤-⑥-|
26
③口口⑥ |①-②-|
口口口口 |----|
⑤口口④ |③-④-|
口②口① |⑤-⑥-|
27
③口口口 |①---|
口②口 |②---|
④口口 |③---|
①①口 |④---|
28
③口口口 |①---|
口口②口 |②---|
口④口口 |③---|
口①口口 |④---|
29
口口③口 |①---|
②口口 |②---|
口④口 |③---|
口口 |④---|
30
③口口口 |①---|
口口② |②---|
口口④ |③---|
口口 |④---|
31
口口③口 |①---|
②口口 |②---|
口口④ |③---|
口口 |④---|
32
口口③口 |①---|
口口②口 |②---|
口口口④ |③---|
口口①① |④---|
33
口口③口 |①---|
口②口④ |②---|
口口口口 |③---|
口口①① |④---|
34
②口口③ |①---|
口口口口 |----|
④①①⑤ |②-③-|
①①口 |④-⑤-|
35
⑨⑤口⑧ |①②③④|
①②③④ |⑤---|
口口口口 |⑥-⑦-|
口⑦⑥口 |⑧-⑨-|
36
⑧口⑤⑨ |①②③④|
口口口口 |⑤---|
④③②① |⑥-⑦-|
⑥口口⑦ |⑧-⑨-|
37
⑨⑤口⑧ |①②③④|
①②③④ |⑤---|
口口口口 |⑥-⑦-|
口⑦⑥口 |⑧-⑨-|
38
口口⑤⑦ |①②③④|
口口口口 |⑤---|
④③②① |⑥---|
口口口⑥ |⑦---|
39
口口口口 |①②③④|
①②③④ |⑤---|
口口口口 |----|
口⑤口口 |----|
40
②⑩⑨① |①②③④|
④⑫⑪③ |⑤⑥⑦⑧|
⑥⑭⑬⑤ |⑨⑩⑪⑫|
⑧⑯⑮⑦ |⑬⑭⑮⑯|
41
口口⑤① |①-②-|
②口口口 |③-④-|
⑥口口③ |⑤-⑥-|
④⑧口⑦ |⑦-⑧-|
42
⑧⑦⑥⑤ |①②③④|
④③②① |⑤⑥⑦⑧|
⑫⑪⑩⑨ |⑨⑩⑪⑫|
⑯⑮⑭⑬ |⑬⑭⑮⑯|
43
⑦⑤口⑥ |①②③④|
①②③④ |⑤---|
口口口口 |⑥-⑦-|
口⑨⑧口 |⑧-⑨-|
44
⑥口⑤⑦ |①②③④|
口口口口 |⑤---|
④③②① |⑥-⑦-|
口⑧⑨口 |⑧-⑨-|
45
⑦⑤口⑥ |①②③④|
①②③④ |⑤---|
口口口口 |⑥-⑦-|
口⑨⑧口 |⑧-⑨-|
46
口口⑤⑦ |①②③④|
口口口口 |⑤---|
④③②① |⑥---|
口口口⑥ |⑦---|
47
口口口口 |①②③④|
①②③④ |⑤---|
口口口口 |----|
口⑤口口 |----|
48
①⑨⑩② |①②③④|
③⑪⑫④ |⑤⑥⑦⑧|
⑤⑬⑭⑥ |⑨⑩⑪⑫|
⑦⑮⑯⑧ |⑬⑭⑮⑯|
49
①口⑤口 |①-②-|
口⑥口② |③-④-|
③口口⑦ |⑤-⑥-|
⑧口口④ |⑦-⑧-|
50
①⑨⑩② |①②③④|
③⑪⑫④ |⑤⑥⑦⑧|
⑬⑤⑥⑭ |⑨⑩⑪⑫|
⑮⑦⑧⑯ |⑬⑭⑮⑯|
51
|①---|
|----|
口口口口 |----|
口口口口 |----|
52
|①---|
|----|
口口 |----|
口口 |----|
53
|①---|
口口 |----|
口口
口口口口

口口口口
口口
|②---|
口口 |----|
54
口口 |①---|
口口 |----|
口口口口
口口

口④口口
③口
口口口② |--②-|
口口口口 |③-④-|
55
口口 |①---|
口口 |----|
口口 |----|
口口 |----|
56
|①---|
口口 |----|
口口 |----|
口口 |----|
57
口口 |①---|
口口口口 |----|
②②口口 |②---|
口口①① |----|
58
口口①① |①---|
②②口口 |②---|
口口③③ |③---|
④④口口 |④---|
59
口口口④ |①---|
口③口口 |②-③-|
口②口口 |----|
口口①① |④---|
60
①①口口 |①---|
口口③口 |②-③-|
口口②口 |----|
④口口口 |④---|
61
口口口口 |①---|
口②④口 |②---|
③③口口 |③---|
口口①① |④---|
62
①①口口 |①---|
口口口③ |②-③-|
口口口② |----|
④口口口 |④---|
63
口口①① |①---|
口③口口 |②-③-|
⑤②口口 |④---|
口口口④ |⑤---|
64
①①⑤⑤ |①---|
口口③口 |②-③-|
口口②口 |④---|
④口口口 |⑤---|
65
口口口口 |①---|
③口⑤口 |②-③-|
②口口④ |④---|
口口①① |⑤---|
66
①①①① |①---|
口口口口 |----|
口口口口 |----|
口口口口 |----|
67
口⑥①① |①-②-|
②口口⑦ |③-④-|
口口口③ |--⑤-|
④口⑤口 |⑥-⑦-|
68
⑧口口⑦ |①-②-|
④⑤⑥口 |③-④-|
③②口口 |⑤-⑥-|
口①口口 |⑦-⑧-|
69
口口口口 |①---|
口口口口 |--②-|
口②②口 |----|
③③①① |③---|
70
①口口① |①---|
口③口⑤ |②-③-|
⑦④②口 |④-⑤-|
口口口⑥ |⑥-⑦-|
71
口⑥①① |①-②-|
②口口⑦ |③-④-|
口口口③ |--⑤-|
④口⑤口 |⑥-⑦-|
72
⑧口口⑦ |①-②-|
④⑤⑥口 |③-④-|
③②口口 |⑤-⑥-|
口①口口 |⑦-⑧-|
73
口口口口 |①---|
口口口口 |--②-|
口②②口 |----|
③③①① |③---|
74
①口口① |①---|
口③口⑤ |②-③-|
⑦④②⑥ |④-⑤-|
口口口口 |⑥-⑦-|
75
口口②口 |①---|
口③口口 |②-③-|
⑦口④⑥ |④-⑤-|
⑤口①① |⑥-⑦-|
76
④口口⑦ |①-②-|
⑧口①① |③-④-|
口②⑤口 |⑤-⑥-|
⑥口③⑤ |⑦-⑧-|
77
口口口⑦ |①-②-|
⑧口①③ |③-④-|
④口⑤① |⑤-⑥-|
⑥②口⑤ |⑦-⑧-|
78
④口口口 |①-②-|
口⑧①③ |③-④-|
⑦②口① |⑤-⑥-|
口⑥口⑤ |⑦-⑧-|
79
口口⑦① |①-②-|
④口①口 |③-④-|
⑧⑥口③ |⑤-⑥-|
②口口⑤ |⑦-⑧-|
80
④口口⑤ |①-②-|
口⑥⑤① |③-④-|
口口①③ |⑤-⑥-|
②⑧口⑦ |⑦-⑧-|
81
口②①口 |①-②-|
④口口③ |--③-|
④②①③ |④---|
⑥⑥⑤⑤ |⑤-⑥-|
82
口⑨⑤① |----|
口⑩⑥② |----|
口⑪⑦③ |----①②③④|
口⑫⑧④ |⑤⑥⑦⑧⑨⑩⑪⑫|
83
口口口口 |①---|
①口口口 |----|
①口口口 |----|
口口口口 |----|

不確定度: 0

最終更新:2016年12月20日 03:25